<?xml version="1.0" standalone="no"?>
<!DOCTYPE svg PUBLIC "-//W3C//DTD SVG 1.1//EN" "http://www.w3.org/Graphics/SVG/1.1/DTD/svg11.dtd" >
<svg xmlns="http://www.w3.org/2000/svg">
<metadata>Generated by IcoMoon</metadata>
<defs>
<font id="dcom-ico-font" horiz-adv-x="1024">
<font-face units-per-em="1024" ascent="960" descent="-64" />
<missing-glyph horiz-adv-x="1024" />
<glyph unicode="&#x20;" horiz-adv-x="512" d="" />
<glyph unicode="&#xe600;" glyph-name="listing-organic" horiz-adv-x="583" d="M328.921 371.2c-43.572-99.814-102.4-186.828-186.828-258.586-12.8 10.214-23.014 17.972-35.814 25.6-28.186 23.014-51.2 48.614-69.172 81.972-17.972 30.772-28.186 64-30.772 97.228-5.172 56.372 7.628 110.028 30.772 161.228 17.972 40.986 43.572 79.386 74.214 115.2 12.8 12.8 25.6 28.186 38.4 40.986 20.428 20.428 40.986 40.986 61.414 64 33.228 35.814 53.786 76.8 61.414 125.414 5.172 35.814 5.172 71.628 2.586 107.572 0 10.214-5.172 17.972-5.172 28.186 12.8-2.586 25.6-12.8 38.4-20.428 33.228-23.014 58.828-53.786 84.428-84.428 40.986-48.614 76.8-102.4 107.572-158.772 30.772-58.828 56.372-122.828 69.172-189.414 10.214-46.028 15.386-92.186 12.8-138.214-2.586-56.372-15.386-107.572-46.028-153.6-40.986-64-99.814-104.986-171.572-125.414-38.4-12.8-79.386-15.386-120.372-12.8-7.628 0-17.972 2.586-25.6 2.586-2.586 0-7.628 0-7.628-2.586-38.4-40.986-81.972-76.8-125.414-110.028-10.214-7.628-20.428-15.386-30.772-23.014-23.014-15.386-48.614-7.628-53.786 17.972-5.172 15.386 7.628 33.228 23.014 43.572 30.772 15.386 64 30.772 92.186 48.614 58.828 35.814 107.572 84.428 143.386 140.8 28.186 46.028 51.2 94.772 64 145.972 0 9.956 2.586 20.17 5.172 30.384z" />
<glyph unicode="&#xe601;" glyph-name="dlocation" horiz-adv-x="834" d="M548.181 398.66c-5.239 4.625-12.8 6.895-22.75 6.895-5.82 0-10.786-0.87-14.985-2.662-4.181-1.707-7.663-4.096-10.308-6.997-2.645-3.004-4.591-6.298-5.803-10.172-1.263-3.738-1.946-7.595-1.946-11.537 0-4.727 0.683-8.772 2.185-12.134 1.382-3.26 3.379-6.093 6.11-8.226 2.577-2.099 5.581-3.703 9.199-4.727 3.601-1.041 7.68-1.536 12.083-1.536 5.478 0 10.206 0.666 14.063 2.133 3.806 1.399 7.083 3.26 9.591 5.359 2.543 2.236 4.42 4.625 5.82 7.168 1.399 2.628 2.458 5.001 3.209 7.373 0.58 2.304 0.939 4.301 1.058 6.059 0.119 1.792 0.239 2.901 0.239 3.294 0.017 8.55-2.577 15.121-7.765 19.712zM484.557 447.437c-11.708-7.731-36.591-37.871-56.969-39.936-4.506-0.495-10.479 7.834-11.213 20.395-0.102 1.792-0.102 3.328-0.188 4.932 0.085 0 0.085 0.034 0.085 0.034-0.085 8.892 1.024 17.408 4.403 29.611 0.341 1.348 2.679 8.26 3.379 9.762 6.878 13.431 15.292 33.963 22.050 48.742 6.758 14.814 13.5 29.85 20.122 45.124 6.605 15.223 13.022 30.532 18.995 45.926 6.042 15.462 11.127 30.686 15.428 45.858 4.198 15.155 7.185 30.14 9.301 44.937 3.482 25.242 0.887 85.385-37.734 85.385-22.767 0-47.462-10.086-66.389-43.196-26.761-47.087-36.591-162.85-37.786-193.98-61.969 35.55-109.397-26.829-125.491-93.508-4.403-18.449-10.103-101.001 40.687-103.475 6.81-0.393 13.602 1.041 20.702 3.294 7.031 2.406 14.097 5.427 21.316 9.233 7.117 3.874 14.114 8.329 21.094 13.534 6.878 5.239 13.5 10.667 19.797 16.401 0.717-2.935 1.485-5.598 2.406-8.141-0.102-0.068-0.102-0.137-0.102-0.205 0.512-1.263 1.007-2.662 1.724-4.13 0-0.205 0.085-0.427 0.222-0.597 0 0.068 0 0.068 0 0.068 4.489-10.103 13.38-22.391 30.003-22.391 60.006 0 100.762 60.86 106.615 74.206 5.751 13.363-10.94 19.917-22.46 12.117zM358.246 446.242c-4.608-7.782-9.506-14.746-14.592-20.838-2.099-2.662-4.506-5.308-6.997-7.663-2.492-2.492-5.103-4.727-7.697-6.639-2.714-1.894-37.7-24.593-37.7 13.363-0.102 58.249 38.025 114.688 73.711 77.585 0.085-3.277-6.878-53.606-6.724-55.808zM412.774 589.090c2.167 20.463 3.209 30.618 3.209 30.618s2.185 11.145 6.707 33.348c4.625 22.204 8.704 38.281 12.493 48.35 3.806 10.001 7.782 18.091 11.895 24.115 4.198 6.093 8.363 9.284 12.339 9.643 1.143 0.085 1.929-1.348 2.492-4.386 0.58-3.004 0.922-6.707 1.417-11.059-0.137-13.653-1.877-28.604-5.325-44.8-3.396-16.145-7.68-32.495-12.902-49.015-5.222-16.35-10.906-32.393-16.998-47.991-5.683-14.746-11.213-28.092-16.503-40.107-0.358 7.782-0.802 15.599-0.802 23.45 0.256 8.755 0.973 17.954 1.98 27.836zM416.853 960c-230.178 0-416.853-186.607-416.853-416.751 0-93.372 30.703-179.575 82.586-249.071 0 0 71.799-125.099 334.285-358.161 262.315 233.062 334.199 358.161 334.199 358.161l0.102 0.222c51.78 69.393 82.5 155.58 82.5 248.883-0.017 230.11-186.59 416.717-416.819 416.717zM416.853 227.038c-174.387 0-316.279 141.841-316.279 316.177s141.875 316.245 316.279 316.245c174.302 0 316.211-141.858 316.211-316.245s-141.892-316.177-316.211-316.177z" />
<glyph unicode="&#xe602;" glyph-name="trash" horiz-adv-x="800" d="M664.832 920.672h-115.264c-6.56 19.136-21.088 34.752-48.8 34.752h-186.080c-27.712 0-42.208-15.616-48.768-34.752h-115.296c-80.416 0-145.632-64.352-147.36-144.352h808.96c-1.696 80-66.944 144.352-147.36 144.352zM74.528 54.432c0-65.184 52.832-118.016 118.016-118.016h439.072c65.184 0 118.016 52.832 118.016 118.016v688.352h-675.104v-688.352z" />
<glyph unicode="&#xe603;" glyph-name="star" horiz-adv-x="1088" d="M1047.904 586.080l-330.368 41.728-152.64 309.216c-13.248 27.008-35.040 27.008-48.32 0l-145.92-309.216-337.088-41.728c-29.728-4.288-36.448-24.992-14.944-45.952l244.864-242.176-60.352-325.568c-5.056-29.632 12.576-42.464 39.136-28.448l301.856 150.144 295.104-150.144c26.624-14.016 44.224-1.184 39.168 28.448l-53.696 325.568 238.144 242.144c21.536 20.992 14.848 41.696-14.944 45.984z" />
<glyph unicode="&#xe604;" glyph-name="search" d="M1024.224 62.912l-346.368 347.136-0.896-0.864c32.224 53.952 51.072 116.736 51.072 184.128 0 198.816-161.152 359.968-360 359.968-198.816 0-359.936-161.152-359.936-359.968s161.12-360 359.936-360c66.784 0 129.088 18.496 182.688 50.208l347.456-347.136 126.080 126.528zM369.184 371.264c-124.544 0-225.504 100.928-225.504 225.536 0 124.512 100.96 225.504 225.504 225.504 124.608 0 225.568-100.96 225.568-225.504 0-124.608-100.928-225.536-225.568-225.536z" />
<glyph unicode="&#xe605;" glyph-name="restaurants" horiz-adv-x="384" d="M350.080 583.072c0 126.24 0 346.976 0 357.312 0 14.496-5.728 14.496-14.688 14.496-13.728 0-98.784-90.272-98.784-254.464 0-138.816 48.896-188.704 63.648-200.8l-26.112-477.696c-0.256-55.36 9.952-83.168 46.496-83.168h19.616c33.408 0 42.016 28.928 41.824 83.168l-32 561.184zM189.92 644.544c0 2.72-3.040 295.68-3.040 295.68 0 9.312-3.776 18.816-16.992 18.816-10.944 0-17.824-7.552-17.824-16.864l-3.168-239.232v-10.112c0-9.312-5.76-17.76-16.96-17.76-11.168 0-14.816 8.448-14.816 17.76v249.312c0 9.312-8.672 16.864-18.88 16.864-0.384 0-0.416-0.096-0.8-0.128-0.384 0.032-1.728 0.128-2.112 0.128-10.208 0-20.576-7.552-20.576-16.864v-249.312c0-9.312-3.648-17.76-14.816-17.76s-16.96 8.448-16.96 17.76v10.112l-1.28 239.232c0 9.312-5.664 16.864-16.608 16.864-13.216 0-16.64-9.504-16.64-18.816 0 0-2.848-292.96-2.848-295.68 0-49.184 43.872-59.744 73.984-60.864l-31.872-559.424c-0.224-55.36 8.64-85.504 45.152-85.504h9.952c36.512 0 45.344 30.144 45.12 85.504l-31.936 559.584c30.080 1.088 73.856 11.52 73.856 60.704z" />
<glyph unicode="&#xe606;" glyph-name="plus" horiz-adv-x="992" d="M987.52 520.832l-419.552 0.288 0.288 436.608-147.744 0.096-0.288-436.608-419.552 0.288-0.096-147.744 419.552-0.32-0.288-436.576 147.776-0.096 0.288 436.608 419.552-0.288z" />
<glyph unicode="&#xe607;" glyph-name="pencil" d="M864 960c88.352 0 160-71.648 160-160 0-36.032-11.904-69.248-32-96l-64-64-224 224 64 64c26.752 20.096 59.968 32 96 32zM64 224l-64-288 288 64 592 592-224 224-592-592zM715.584 596.416l-448-448-55.168 55.168 448 448 55.168-55.168z" />
<glyph unicode="&#xe608;" glyph-name="heart" horiz-adv-x="1312" d="M1308.928 642.912c0 132.896-123.744 311.648-333.024 311.648-205.888 0-313.952-163.744-317.44-169.088-3.456 5.344-111.52 169.088-317.44 169.088-209.28 0-332.992-178.752-332.992-311.648 0-297.28 416.576-626.912 650.784-699.52 232.384 67.84 650.112 400.64 650.112 699.52z" />
<glyph unicode="&#xe609;" glyph-name="delivery-logo" horiz-adv-x="3411" d="M2287.45 335.637c-9.659 0-17.962-1.494-25.019-4.4-7.030-2.934-12.758-6.864-17.159-11.845-4.428-4.954-7.694-10.6-9.797-16.882s-3.183-12.786-3.183-19.401c0-7.888 1.218-14.585 3.653-20.176 2.408-5.618 5.784-10.185 10.074-13.755 4.345-3.598 9.52-6.255 15.526-7.971 6.061-1.771 12.786-2.629 20.203-2.629 9.271 0 17.076 1.19 23.524 3.57 6.421 2.408 11.762 5.397 15.997 9.078 4.207 3.653 7.472 7.638 9.797 11.956 2.297 4.317 4.013 8.413 5.092 12.233 1.135 3.875 1.771 7.251 1.993 10.157 0.194 2.934 0.304 4.76 0.304 5.507 0 14.308-4.317 25.296-12.98 33.017-8.635 7.694-21.31 11.541-38.026 11.541zM966.213 679.23c4.345-3.57 9.493-6.227 15.554-7.971 6.006-1.744 12.731-2.602 20.176-2.602 9.216 0 17.076 1.19 23.497 3.57s11.734 5.397 15.969 9.050c4.207 3.681 7.472 7.638 9.825 11.984 2.297 4.317 3.985 8.386 5.12 12.233 1.079 3.847 1.744 7.251 1.965 10.185 0.194 2.934 0.304 4.76 0.304 5.507 0 14.281-4.317 25.296-12.98 32.989-8.607 7.722-21.283 11.568-37.971 11.568-9.631 0-17.989-1.467-25.019-4.4s-12.758-6.891-17.214-11.818c-4.4-4.982-7.666-10.6-9.77-16.91-2.131-6.338-3.183-12.786-3.183-19.373 0-7.888 1.218-14.613 3.626-20.203 2.408-5.646 5.757-10.24 10.102-13.81zM3410.999 323.017c-0.692 6.781-3.183 13.312-7.334 17.021-4.096 3.736-9.853 4.539-17.187-0.083-11.624-7.417-19.567-18.902-34.484-28.174-5.397-3.293-15.747-4.317-21.006 0.498-9.797 9.050-7.998 32.657-8.081 44.696-0.166 20.895 22.307 178.813 23.414 195.916 1.744 27.676 0.83 42.538-13.533 51.615-8.469 5.369-24.355 5.092-35.425 1.273-37.639-12.952-114.107-140.592-125.841-164.864-4.234-8.801-12.067-10.351-9.216 1.439 8.303 34.567 26.154 103.811 27.288 122.243 1.633 26.098-13.45 42.205-37.002 44.115-44.032 3.57-99.965-101.736-135.445-167.106-2.574-4.705-5.12 2.518-5.12 2.518 3.736 20.84 22.5 105.998 16.55 148.369-4.068 29.032-25.96 52.030-57.953 38.248-22.417-9.659-36.836-31.523-51.615-49.899-14.585-18.072-28.368-27.178-48.349-30-14.89 27.482-35.895 51.366-67.086 56.32-27.067 4.262-54.77-6.531-76.717-16.522-21.974-9.991-39.216-25.904-54.41-43.257-15.194-17.408-26.513-39.355-34.65-62.907-8.192-23.58-12.233-51.615-12.233-84.189 0-4.843 0.166-9.659 0.415-14.474-0.36-0.36-0.692-0.692-1.052-1.079-13.063-13.34-26.845-25.545-41.264-36.615-14.447-11.098-28.81-20.286-43.146-27.565-14.308-7.306-27.371-10.932-39.216-10.932-12.039 0-21.891 2.629-29.475 7.943-7.638 5.314-13.866 11.956-18.626 19.982-4.788 8.026-7.998 16.854-9.603 26.486-1.578 9.631-2.38 18.902-2.38 27.759 0 5.923 0.249 13.257 0.747 22.030 0.47 8.718 1.744 17.934 3.875 27.565 2.048 9.631 5.59 21.504 10.489 35.729 4.539 13.091 9.105 23.303 13.755 30.941 8.829 17.712 28.81 27.786 38.746 29.004 0.803 0.083 1.578-0.055 2.325-0.055 15.166 1.245 17.076-21.034 23.801-37.639 5.674-14.004 8.303-26.928 29.004-25.434 37.141 2.657 35.065 103.507-17.436 126.838-12.316 5.452-26.624 6.476-41.569 6.476-16.605 0-31.882-3.017-45.748-9.078-13.921-6.033-26.486-14.198-37.75-24.41-11.319-10.268-21.255-22.168-29.807-35.729s-15.72-27.842-21.587-42.759c-5.812-14.945-11.181-32.381-16.163-52.362-4.982-20.037-7.445-37.168-7.445-51.477 0-20.010 2.934-39.244 8.912-57.731 5.978-18.515 14.779-34.816 26.458-48.875 11.651-14.059 26.126-25.296 43.395-33.681 17.27-8.441 37.639-15.056 60.527-15.056 31.993 0 63.184 17.934 74.946 24.493 11.707 6.504 22.943 14.004 33.681 22.417 10.738 8.386 20.701 16.993 29.807 25.904 4.705 4.566 9.327 9.299 13.866 14.142 4.207-11.873 9.493-22.915 15.997-33.017 9.853-15.305 20.342-28.229 35.757-37.722 15.471-9.493 36.532-16.163 58.23-16.163 15.083 0 34.069 4.733 47.436 9.908 13.312 5.203 22.915 12.758 34.152 21.67 11.209 8.884 18.736 19.096 27.454 31.19 8.746 12.094 16.163 25.074 22.279 38.857 6.006 13.838 10.655 28.146 13.838 42.953 3.21 14.779 4.816 29.502 4.816 44.060 0 19.982-3.017 37.722-5.369 53.829-0.996 6.919-2.242 13.589-3.626 20.12 16.993 3.681 32.63 10.655 47.049 21.974-9.797-72.261-25.711-195.141-26.901-202.282-5.48-31.855-4.539-79.54 35.951-82.28 35.536-2.435 44.641 19.041 49.595 28.838 16.965 33.128 31.689 60.776 41.486 84.079 11.596 27.565 58.755 108.959 62.104 113.636 6.393 8.939 13.035 2.352 12.62 0.194-0.36-2.131-11.375-55.628-14.502-75.333-6.448-40.877-16.439-115.048 9.742-141.699 14.668-14.917 35.951-14.059 52.113 15.526 0 0 95.204 187.586 97.446 193.287 4.982 12.62 11.79 11.043 11.043 2.159-4.013-48.958-14.087-105.97-9.161-146.294 3.819-31.412 14.668-74.752 49.263-76.468 36.726-1.799 71.514 25.379 92.935 54.604 6.365 8.579 12.399 23.414 11.209 34.346zM2821.618 401.588c-3.626-18.377-8.358-34.041-14.281-46.993-5.95-12.952-12.842-23.718-20.729-32.214-7.915-8.524-16.052-12.758-24.438-12.758-9.631 0-17.878 2.020-24.797 6.089-6.919 4.068-12.426 9.52-16.661 16.301-4.179 6.781-7.306 14.723-9.244 23.856-1.993 9.105-2.989 18.875-2.989 29.253 0 20.48 1.993 38.857 5.95 55.158 3.93 16.301 9.382 31.163 16.301 44.613 6.864 13.423 14.917 24.465 24.050 33.128 9.078 8.635 18.736 12.952 28.866 12.952 7.611 0 14.198-2.103 19.594-6.31 5.397-4.179 9.88-9.853 13.312-17.021 3.459-7.14 6.061-15.609 7.777-25.379 1.716-9.742 2.602-20.286 2.602-31.633 0.055-14.308-1.744-30.665-5.314-49.041zM2197.836 225.82c8.773 59.807 22.002 140.067 25.96 163.425 2.768 15.554 6.365 36.144 10.849 61.717 4.428 25.6 7.86 45.471 10.378 59.669 2.491 14.17 4.677 26.818 6.642 37.943 1.91 11.126 5.314 24.963 6.476 31.578 0.747 2.961 1.135 5.563 1.135 7.805 0 7.168-2.629 12.454-7.805 15.803-5.258 3.349-11.707 5.037-19.401 5.037-6.448 0-13.257-1.135-20.452-3.376s-14.142-5.646-20.895-10.212c-6.698-4.594-12.509-10.129-17.491-16.578-5.203-6.698-10.544-19.124-12.288-27.288l-29.751-139.015c-1.024-8.026-3.183-17.989-6.531-30-3.321-11.956-7.722-23.58-13.174-34.816-5.452-11.209-11.928-20.84-19.345-28.81-7.445-7.998-15.72-11.984-24.908-11.984-5.674 0-10.378 1.439-14.115 4.317s-6.698 6.642-8.912 11.236c-2.242 4.65-3.792 9.908-4.622 15.803-0.886 5.895-1.328 11.956-1.328 18.211 0 12.039 1.467 25.711 4.428 41.043 2.934 15.36 6.919 36.117 11.928 62.298 6.891 35.868 15.222 71.043 24.576 106.33 2.020 7.777 2.159 14.032 1.384 22.058-1.55 15.581-16.246 17.021-43.478 22.805-27.178 5.812-75.029 10.544-74.254-6.698 0.747-16.080 3.238-21.421 22.417-29.281 0 0-22.39-82.169-26.707-108.544-4.151-25.24-7.694-46.523-10.6-63.986-5.286-15.858-33.432-91.44-45.914-93.239-41.486-6.033-11.070 170.704-4.29 201.922 4.65 21.476-18.681 37.058-44.226 45.471-15.83 5.203-25.904 14.862-48.183 35.674-4.207 4.65-8.164 18.709-12.399 23.635-15.803 18.238-39.438 27.537-62.353 16.439-28.589-13.838-28.949-55.047-14.419-78.018-1.965-14.364-2.435-28.118-3.044-36.809-2.38-34.595-16.080-70.711-29.004-102.511-4.566-11.181-9.659-22.168-16.052-32.464-10.489-16.854-26.541-30.914-42.897-41.818-16.135-10.766-33.847-21.338-52.805-26.070-8.026-2.020-17.657-3.459-25.932-2.269-26.32 3.93-30.139 12.426-36.2 21.532 115.186 57.482 144.688 132.76 140.648 189.191-4.068 56.818-49.899 93.35-103.23 86.846-40.905-4.982-123.212-52.473-140.703-169.569-2.131-14.419-5.341-33.958-1.356-66.92-10.268-3.985-19.511-6.864-26.32-7.832-18.709-2.657-49.124 6.974-59.364 38.248-1.827 5.563-2.269 11.541-2.269 17.436 0 5.701 0.47 11.209 1.328 16.578 0.858 5.314 1.91 10.102 3.155 14.308 1.494 4.705 2.961 9.271 4.456 13.755 1.494 4.207 7.805 19.705 18.986 46.467 1.467 3.487 5.452 11.541 11.901 24.161 2.961 5.95 5.452 12.786 7.445 20.452 1.993 6.199 2.989 12.758 2.989 19.705 0 9.161-4.345 16.688-13.008 22.473-8.69 5.812-20.203 8.746-34.595 8.746-5.452 0-10.572-0.747-15.443-2.242-4.788-1.494-9.216-3.404-13.174-5.757-3.985-2.352-7.196-5.148-9.659-8.358-2.491-3.238-4.124-6.559-4.843-10.046l-101.487-247.974-2.546-0.36 7.085 246.507c-0.166 6.421-2.020 12.122-5.452 17.076-3.459 4.954-9.631 7.611-21.393 8.69-11.707 1.107-75.721 4.733-79.042 4.788-11.236 0.249-24.687 3.764-24.41-18.404 0.166-15.969 9.382-21.366 35.868-28.866 0 0-0.747-44.53-0.747-60.637 0-9.936 0.083-19.594 0.387-29.004 0.249-9.41 0.664-19.705 1.301-30.886 0.581-11.126 1.301-23.607 2.048-37.362 0.581-10.96 1.19-23.469 1.827-37.418-28.368-23.829-72.732-56.984-102.345-55.877-23.192 0.858-11.624 68.165 0.221 112.197 11.679 43.368 33.709 124.43 36.255 134.365 2.546 9.963 3.819 17.657 3.819 23.109 0 6.448-1.827 11.596-5.48 15.443-2.712 2.851-6.891 5.314-17.906 6.781-33.737 4.456-36.809 4.234-72.732 9.022-17.297 2.297-34.622 4.013-32.657-19.207 1.107-13.146-0.332-19.899 33.571-28.146-4.843-18.819-9.52-39.576-15-56.929-10.157-36.31-16.91-59.779-20.286-70.352-2.048-5.341-6.614-29.502-13.782-72.593-0.554-3.183-0.969-6.199-1.411-9.244-24.106-18.515-54.106-36.421-83.913-36.947-30.554-0.581-11.43 104.337-10.489 108.433s1.91 7.5 2.906 10.102c9.161 23.552 18.819 40.932 30.471 65.453 11.679 24.493 23.275 49.401 34.761 74.669s22.473 50.674 32.879 76.219c10.434 25.545 19.401 50.923 26.901 76.136 7.472 25.213 14.059 50.010 16.716 74.78 7.915 73.341-14.336 152.687-62.381 154.818-72.234 3.183-116.542-73.922-150.362-198.739-7.002-25.904-17.297-58.534-24.991-99.826-7.638-41.292-11.513-61.91-11.513-61.91s-2.020-20.508-6.006-61.551c-4.013-41.071-4.207-70.047-1.799-94.263 1.633-16.301 3.21-30.443 5.148-44.419-64.152-51.809-124.347-93.129-166.635-86.902-26.347 3.93-30.194 12.426-36.2 21.532 115.186 57.482 144.688 132.76 140.648 189.191-4.068 56.818-49.927 93.322-103.258 86.846-40.877-4.982-123.184-52.473-140.675-169.569-2.491-16.854-6.421-40.6 1.301-84.688-0.055-0.055-0.111-0.111-0.166-0.166-5.95-4.207-12.094-8.441-18.404-12.565-6.338-4.068-12.592-7.805-18.792-11.015-6.172-3.293-12.067-5.84-17.629-7.722-2.103-0.692-4.068-1.135-6.033-1.578-0.775-0.055-1.633-0.249-2.38-0.249-1.993 0-4.068 1.439-6.338 4.262-2.214 2.906-4.345 6.781-6.338 11.679-1.965 4.871-3.653 10.351-5.037 16.495-0.138 0.609-0.221 1.273-0.304 1.937 0 0.028 0 0.028 0 0.028-1.107 18.404 0.083 34.235 6.919 58.866 0.664 2.159 4.622 13.699 5.867 16.218 11.43 22.5 25.462 56.652 36.753 81.366 11.264 24.714 22.445 49.789 33.543 75.222 11.070 25.434 21.615 51.006 31.661 76.745 10.019 25.683 18.57 51.228 25.655 76.551s12.067 50.37 15.526 75.029c5.895 42.095 1.633 142.557-62.824 142.53-38.082 0-79.318-16.938-110.841-72.206-44.807-78.544-61.108-271.775-63.128-323.778-103.424 59.309-182.493-44.835-209.394-156.091-7.472-30.831-16.882-168.573 67.861-172.779 11.292-0.554 22.777 1.91 34.567 5.757 11.734 3.875 23.58 8.967 35.508 15.388 11.873 6.393 23.607 13.921 35.148 22.583 11.513 8.635 22.583 17.795 33.155 27.371 3.542-15.498 8.635-27.952 15.305-37.307 6.642-9.382 13.644-16.55 21.006-21.476 7.334-4.926 14.308-8.22 20.95-9.825 6.614-1.633 17.878-1.854 21.449-1.827 51.754 0.692 92.88 29.17 117.096 47.464 10.877-13.838 25.24-26.624 43.478-33.598 18.1-6.947 37.611-12.15 60.748-12.869 75.721-2.297 144.91 45.499 187.973 83.221 2.269-6.642 4.677-13.174 7.334-19.179 8.552-19.539 24.327-60.72 67.224-64.014 8.662-0.664 17.989 1.107 27.952 3.349 9.936 2.214 20.176 5.203 30.609 8.995s20.867 8.081 31.19 12.925c7.528 3.487 14.834 7.057 22.002 10.655 2.297-5.84 5.286-11.015 9.050-15.498 5.452-6.448 12.592-11.458 21.366-15.083 8.773-3.598 19.65-5.341 32.519-5.341 14.364 0 29.53 2.602 45.526 7.805s31.661 11.734 47.021 19.511c15.36 7.805 29.696 16.384 42.953 25.683 4.317 3.017 8.33 5.978 12.177 8.856 1.439-9.686 3.709-18.792 6.836-27.288 4.096-11.126 8.275-16.384 16.744-23.635 8.441-7.334 22.473-10.932 37.833-10.932 7.943 0 21.836 5.563 31.44 13.616 9.576 8.081 14.115 12.731 23.884 25.406 9.797 12.62 19.29 26.735 28.451 42.344 9.161 15.581 17.325 30.858 24.548 45.72 0.249-9.437 38.414-63.156 90.721-64.014 19.262-0.304 41.763 6.476 63.045 15.388 10.046-22.694 30.333-53.248 62.713-65.619 18.072-6.947 37.584-12.15 60.748-12.869 61.025-1.827 121.718 31.274 160.989 76.634 13.091 15.111 25.351 31.44 34.041 49.456 20.535 42.593 31.633 89.254 40.24 135.5 0.664 3.515 7.389 27.039 5.148 29.198 12.399-12.067 20.397-20.508 42.565-34.041-20.923-108.101-43.036-259.459 60.084-256.775 25.434 0.637 49.622 28.617 66.588 56.763 5.009-11.402 11.347-21.283 19.152-29.447 8.662-9.050 18.681-15.969 29.945-20.812 11.264-4.816 22.86-7.279 34.788-7.279 13.589 0 27.676 3.626 42.15 10.904 14.53 7.223 28.451 16.716 41.873 28.478l-8.192-44.945c-44.143-10.71-141.506-48.737-154.126-169.181-5.95-56.874 41.292-124.485 96.948-124.485 44.613 0 97.972 9.797 119.946 128.138 2.602 13.949 5.867 25.987 7.223 36.726 1.356 10.71 2.823 21.947 4.317 33.82 0.304 4.207 3.044 26.070 4.124 33.349 31.024 4.456 62.132-24.936 67.114 13.893 3.183 24.963-50.48 41.181-59.918 43.977zM197.577 388.414c-7.694-12.952-15.72-24.548-24.189-34.761-3.626-4.483-7.555-8.773-11.734-12.897-4.179-4.096-8.469-7.805-12.897-11.015s-62.713-41.015-62.824 22.334c-0.138 97.225 63.322 191.35 122.991 129.411-0.028-5.369-11.568-89.531-11.347-93.073zM286.637 541.267c-0.803 12.98-1.328 26.043-1.384 39.106 0.609 14.502 1.771 29.945 3.459 46.495 3.542 34.069 5.286 51.089 5.286 51.089s3.764 18.543 11.319 55.6c7.472 37.058 14.419 63.958 20.757 80.702 6.338 16.716 12.98 30.139 19.954 40.268 6.947 10.129 13.838 15.471 20.618 16.107 1.882 0.194 3.21-2.269 4.068-7.362 0.803-5.065 1.578-11.181 2.242-18.432-0.111-22.86-3.017-47.796-8.773-74.807-5.729-27.011-12.925-54.217-21.587-81.671-8.69-27.399-18.1-54.134-28.285-80.176-9.631-24.631-18.875-46.855-27.676-66.92zM515.736 541.544c15.028 2.878 33.93-4.622 33.211-36.061-1.162-50.84-79.983-97.418-88.867-98.636-0.72 5.286-6.614 122.714 55.656 134.698zM762.908 528.73c-0.692 25.406 0.996 55.13 5.065 89.143 4.041 34.013 6.089 51.006 6.089 51.006s4.068 18.46 12.15 55.407c8.109 36.947 15.471 63.709 22.085 80.342s19.29 63.128 43.534 63.128c15.554 0 0-81.034-6.144-107.935-6.144-26.956-13.81-54.051-22.915-81.311-9.133-27.261-18.986-53.829-29.558-79.734s-20.701-49.263-30.305-70.047zM1547.651 541.544c15.028 2.878 33.958-4.622 33.211-36.061-1.162-50.84-79.983-97.418-88.839-98.636-0.72 5.286-6.642 122.714 55.628 134.698zM2054.808-3.141c-51.145 3.487-17.048 160.021 55.85 164.919-10.378-77.354-10.157-168.019-55.85-164.919z" />
<glyph unicode="&#xe60a;" glyph-name="delivery-logo-with-tagline" horiz-adv-x="3412" d="M2287.701 335.582c-9.626 0-17.971-1.485-25.020-4.42-7.031-2.935-12.766-6.861-17.186-11.81s-7.68-10.598-9.796-16.913c-2.116-6.298-3.191-12.766-3.191-19.405 0-7.885 1.212-14.592 3.635-20.207s5.786-10.172 10.103-13.739c4.335-3.601 9.506-6.263 15.514-8.004 6.042-1.775 12.783-2.594 20.207-2.594 9.284 0 17.101 1.161 23.535 3.567s11.742 5.393 16.009 9.062c4.215 3.669 7.475 7.646 9.796 11.964 2.304 4.301 3.994 8.38 5.103 12.237 1.109 3.874 1.775 7.236 1.98 10.172 0.188 2.935 0.307 4.762 0.307 5.495 0 14.302-4.335 25.293-12.971 33.041-8.653 7.714-21.333 11.554-38.025 11.554zM966.315 679.236c4.335-3.584 9.489-6.229 15.548-7.97 6.025-1.741 12.749-2.611 20.19-2.611 9.233 0 17.067 1.195 23.501 3.584s11.742 5.393 15.991 9.062c4.215 3.669 7.475 7.646 9.813 11.964 2.304 4.318 3.977 8.397 5.12 12.237 1.075 3.857 1.758 7.253 1.963 10.172 0.205 2.935 0.307 4.779 0.307 5.513 0 14.285-4.318 25.293-12.988 32.99-8.619 7.714-21.282 11.554-37.973 11.554-9.626 0-18.005-1.468-25.020-4.386-7.031-2.935-12.766-6.895-17.203-11.827-4.403-4.966-7.68-10.598-9.779-16.913-2.133-6.332-3.174-12.8-3.174-19.388 0-7.885 1.212-14.626 3.618-20.207 2.406-5.615 5.751-10.206 10.086-13.773zM3411.371 322.987c-0.7 6.775-3.209 13.312-7.322 17.033s-9.882 4.557-17.203-0.085c-11.622-7.407-19.558-18.893-34.492-28.16-5.376-3.294-15.753-4.335-20.975 0.495-9.779 9.028-8.004 32.631-8.090 44.698-0.171 20.907 22.289 178.842 23.398 195.925 1.775 27.665 0.853 42.53-13.534 51.627-8.465 5.376-24.371 5.086-35.447 1.28-37.632-12.954-114.108-140.595-125.85-164.864-4.25-8.806-12.049-10.325-9.216 1.434 8.311 34.56 26.18 103.817 27.324 122.266 1.621 26.112-13.466 42.223-37.018 44.134-44.015 3.567-99.977-101.769-135.458-167.117-2.56-4.71-5.103 2.526-5.103 2.526 3.721 20.855 22.494 106.001 16.538 148.378-4.062 29.047-25.975 52.036-57.958 38.263-22.409-9.66-36.83-31.522-51.627-49.92-14.575-18.057-28.382-27.187-48.35-30.003-14.899 27.477-35.891 51.371-67.089 56.32-27.068 4.267-54.801-6.519-76.749-16.521-21.965-9.984-39.202-25.89-54.409-43.281-15.189-17.408-26.522-39.356-34.662-62.925-8.175-23.569-12.237-51.627-12.237-84.207 0-4.83 0.154-9.643 0.393-14.49-0.358-0.358-0.7-0.7-1.058-1.058-13.073-13.346-26.829-25.566-41.267-36.625-14.473-11.11-28.826-20.292-43.145-27.563-14.302-7.305-27.375-10.94-39.219-10.94-12.032 0-21.879 2.628-29.491 7.97-7.646 5.308-13.858 11.93-18.637 19.968s-8.004 16.862-9.591 26.487-2.406 18.876-2.406 27.75c0 5.939 0.273 13.261 0.768 22.033 0.461 8.755 1.775 17.954 3.874 27.58 2.065 9.643 5.581 21.521 10.479 35.738 4.557 13.090 9.114 23.313 13.773 30.925 8.841 17.715 28.809 27.802 38.758 29.013 0.802 0.085 1.553-0.051 2.321-0.051 15.172 1.229 17.084-21.043 23.808-37.649 5.7-14.029 8.294-26.931 29.013-25.446 37.137 2.662 35.055 103.509-17.425 126.839-12.322 5.461-26.624 6.485-41.591 6.485-16.606 0-31.881-3.021-45.756-9.079-13.909-6.042-26.505-14.199-37.769-24.422-11.315-10.257-21.248-22.17-29.815-35.738-8.533-13.568-15.735-27.836-21.589-42.752-5.82-14.95-11.196-32.393-16.162-52.378-4.966-20.036-7.458-37.171-7.458-51.507 0-20.002 2.953-39.236 8.926-57.737 5.973-18.517 14.78-34.816 26.453-48.862 11.674-14.063 26.146-25.293 43.418-33.69 17.271-8.414 37.649-15.053 60.518-15.053 32 0 63.215 17.937 74.974 24.508 11.708 6.502 22.955 13.978 33.69 22.391 10.735 8.38 20.685 17.015 29.815 25.924 4.693 4.574 9.318 9.301 13.858 14.114 4.198-11.844 9.489-22.903 16.009-33.024 9.847-15.292 20.326-28.228 35.755-37.734 15.445-9.506 36.54-16.162 58.231-16.162 15.070 0 34.082 4.727 47.411 9.916s22.938 12.766 34.167 21.692c11.23 8.892 18.739 19.098 27.477 31.181 8.755 12.1 16.145 25.088 22.255 38.878 6.025 13.841 10.65 28.126 13.858 42.94 3.209 14.797 4.796 29.508 4.796 44.066 0 19.985-3.021 37.717-5.359 53.845-1.007 6.912-2.236 13.585-3.618 20.105 16.998 3.669 32.631 10.667 47.070 21.999-9.83-72.277-25.719-195.191-26.914-202.308-5.461-31.863-4.54-79.531 35.942-82.278 35.55-2.423 44.663 19.063 49.596 28.843 16.981 33.143 31.693 60.791 41.506 84.105 11.605 27.563 58.761 108.971 62.123 113.647 6.4 8.943 13.022 2.338 12.629 0.188-0.358-2.133-11.401-55.637-14.524-75.332-6.468-40.875-16.435-115.063 9.711-141.705 14.677-14.933 35.959-14.063 52.122 15.497 0 0 95.232 187.631 97.485 193.314 4.966 12.629 11.759 11.059 11.042 2.167-4.011-48.981-14.080-105.967-9.165-146.313 3.806-31.403 14.66-74.769 49.289-76.459 36.727-1.792 71.492 25.378 92.928 54.596 6.4 8.567 12.442 23.415 11.247 34.355zM2821.905 401.562c-3.601-18.381-8.329-34.048-14.268-47.002-5.939-12.971-12.834-23.74-20.736-32.239-7.919-8.499-16.043-12.766-24.439-12.766-9.609 0-17.903 2.031-24.815 6.093s-12.442 9.506-16.64 16.299c-4.198 6.758-7.322 14.729-9.267 23.859-1.98 9.114-2.987 18.859-2.987 29.235 0 20.497 1.98 38.861 5.956 55.159 3.908 16.299 9.37 31.164 16.282 44.612 6.878 13.449 14.933 24.491 24.064 33.126 9.079 8.636 18.739 12.971 28.86 12.971 7.629 0 14.182-2.099 19.593-6.298 5.393-4.198 9.882-9.865 13.312-17.033 3.465-7.151 6.059-15.616 7.782-25.361 1.724-9.745 2.594-20.292 2.594-31.642 0.085-14.285-1.724-30.652-5.291-49.015zM2198.067 225.775c8.789 59.802 21.999 140.066 25.975 163.43 2.748 15.582 6.383 36.147 10.837 61.73 4.437 25.6 7.885 45.483 10.377 59.665 2.492 14.165 4.659 26.829 6.656 37.939 1.929 11.127 5.325 24.969 6.502 31.573 0.751 2.97 1.109 5.581 1.109 7.817 0 7.185-2.611 12.459-7.817 15.821-5.257 3.345-11.708 5.035-19.388 5.035-6.468 0-13.261-1.126-20.48-3.362-7.185-2.236-14.131-5.649-20.89-10.223-6.707-4.591-12.51-10.121-17.476-16.555-5.239-6.707-10.547-19.132-12.305-27.307l-29.764-139.059c-1.024-8.021-3.209-17.988-6.537-29.986-3.328-11.964-7.731-23.569-13.175-34.833-5.444-11.196-11.895-20.838-19.337-28.809s-15.753-11.947-24.917-11.947c-5.7 0-10.394 1.434-14.114 4.301-3.738 2.867-6.724 6.673-8.926 11.264-2.236 4.625-3.789 9.899-4.625 15.804-0.905 5.905-1.314 11.947-1.314 18.21 0 12.032 1.468 25.719 4.42 41.062s6.929 36.113 11.93 62.31c6.878 35.874 15.223 71.049 24.559 106.342 2.031 7.765 2.167 14.046 1.382 22.067-1.536 15.582-16.247 17.033-43.486 22.818-27.204 5.82-75.042 10.547-74.274-6.707 0.751-16.077 3.243-21.436 22.409-29.269 0 0-22.391-82.176-26.709-108.561-4.164-25.242-7.68-46.524-10.581-64.017-5.308-15.872-33.451-91.426-45.926-93.235-41.506-6.042-11.059 170.701-4.301 201.95 4.659 21.487-18.688 37.052-44.22 45.466-15.855 5.222-25.89 14.865-48.196 35.669-4.198 4.642-8.175 18.722-12.407 23.62-15.804 18.244-39.441 27.546-62.362 16.452-28.587-13.841-28.945-55.040-14.421-78.046-1.946-14.336-2.441-28.109-3.055-36.796-2.389-34.611-16.060-70.707-28.996-102.502-4.574-11.196-9.66-22.187-16.043-32.461-10.496-16.879-26.539-30.925-42.906-41.83-16.145-10.752-33.843-21.35-52.821-26.061-8.021-2.031-17.647-3.465-25.941-2.27-26.317 3.908-30.157 12.442-36.198 21.538 115.2 57.481 144.708 132.779 140.663 189.201-4.062 56.815-49.903 93.338-103.253 86.869-40.892-4.983-123.221-52.48-140.715-169.609-2.133-14.421-5.325-33.929-1.348-66.935-10.257-3.959-19.524-6.861-26.317-7.834-18.722-2.645-49.135 6.98-59.375 38.246-1.826 5.581-2.253 11.537-2.253 17.442 0 5.7 0.444 11.213 1.314 16.572 0.87 5.325 1.911 10.103 3.174 14.319 1.485 4.71 2.97 9.284 4.454 13.756 1.485 4.215 7.799 19.712 18.961 46.473 1.468 3.482 5.444 11.537 11.913 24.166 2.953 5.956 5.427 12.783 7.441 20.463 1.98 6.178 2.987 12.766 2.987 19.712 0 9.165-4.352 16.674-13.022 22.494-8.704 5.82-20.207 8.738-34.594 8.738-5.444 0-10.581-0.751-15.428-2.236-4.796-1.485-9.233-3.413-13.158-5.769-3.977-2.355-7.202-5.137-9.66-8.363-2.492-3.226-4.113-6.571-4.83-10.052l-101.495-248.013-2.543-0.358 7.083 246.528c-0.188 6.434-2.031 12.134-5.461 17.084-3.447 4.966-9.609 7.612-21.402 8.704-11.725 1.109-75.742 4.727-79.053 4.796-11.247 0.239-24.695 3.772-24.422-18.398 0.188-15.974 9.387-21.367 35.891-28.894 0 0-0.734-44.544-0.734-60.655 0-9.933 0.085-19.593 0.358-29.013 0.256-9.421 0.683-19.712 1.297-30.874 0.597-11.145 1.314-23.603 2.048-37.342 0.58-10.957 1.178-23.467 1.809-37.427-28.365-23.825-72.755-56.969-102.366-55.859-23.194 0.87-11.639 68.181 0.222 112.196 11.708 43.383 33.724 124.45 36.267 134.4 2.543 9.967 3.823 17.664 3.823 23.108 0 6.451-1.826 11.605-5.478 15.445-2.714 2.85-6.878 5.325-17.903 6.775-33.758 4.454-36.813 4.233-72.755 9.028-17.323 2.304-34.628 4.011-32.649-19.2 1.092-13.141-0.341-19.917 33.57-28.143-4.847-18.825-9.523-39.578-15.002-56.934-10.172-36.335-16.913-59.785-20.275-70.383-2.048-5.325-6.639-29.508-13.79-72.585-0.529-3.191-0.956-6.178-1.399-9.233-24.115-18.534-54.118-36.454-83.917-36.966-30.549-0.546-11.435 104.346-10.479 108.442 0.956 4.113 1.911 7.475 2.901 10.103 9.148 23.552 18.825 40.926 30.481 65.451 11.674 24.508 23.262 49.408 34.765 74.684 11.486 25.259 22.46 50.671 32.905 76.22s19.405 50.927 26.897 76.151c7.475 25.207 14.063 50.005 16.708 74.786 7.919 73.335-14.336 152.695-62.396 154.812-72.243 3.191-116.548-73.916-150.391-198.741-6.997-25.907-17.306-58.556-24.986-99.84-7.646-41.284-11.503-61.918-11.503-61.918s-2.014-20.514-6.025-61.542c-3.994-41.062-4.215-70.059-1.809-94.276 1.638-16.299 3.209-30.447 5.137-44.442-64.171-51.831-124.365-93.167-166.673-86.903-26.334 3.908-30.208 12.442-36.198 21.538 115.2 57.481 144.691 132.779 140.663 189.201-4.062 56.815-49.937 93.338-103.287 86.869-40.875-4.983-123.204-52.48-140.681-169.609-2.492-16.862-6.434-40.585 1.314-84.685-0.051-0.051-0.119-0.102-0.188-0.154-5.956-4.233-12.083-8.448-18.398-12.561-6.332-4.096-12.578-7.817-18.79-11.025-6.161-3.294-12.049-5.82-17.613-7.731-2.099-0.717-4.079-1.126-6.042-1.57-0.768-0.068-1.638-0.256-2.406-0.256-1.98 0-4.079 1.434-6.332 4.284-2.219 2.901-4.352 6.758-6.332 11.674-1.98 4.864-3.669 10.342-5.035 16.486-0.137 0.614-0.222 1.28-0.324 1.946 0 0.034 0 0.034 0 0.034-1.075 18.398 0.102 34.236 6.929 58.863 0.666 2.167 4.625 13.705 5.888 16.213 11.435 22.494 25.481 56.661 36.762 81.374 11.247 24.713 22.443 49.783 33.553 75.23 11.059 25.446 21.641 51.029 31.642 76.749 10.035 25.702 18.586 51.234 25.668 76.561 7.1 25.31 12.066 50.364 15.514 75.025 5.905 42.103 1.638 142.575-62.839 142.558-38.076-0.017-79.309-16.93-110.848-72.226-44.8-78.558-61.099-271.787-63.13-323.806-103.441 59.324-182.511-44.834-209.425-156.092-7.475-30.857-16.879-168.602 67.857-172.8 11.298-0.546 22.784 1.894 34.56 5.734 11.742 3.891 23.586 8.994 35.499 15.394 11.878 6.4 23.603 13.909 35.157 22.579 11.52 8.67 22.579 17.783 33.143 27.375 3.567-15.479 8.653-27.938 15.309-37.308s13.653-16.538 20.992-21.487c7.339-4.932 14.302-8.209 20.975-9.847 6.622-1.604 17.903-1.86 21.453-1.826 51.763 0.7 92.894 29.167 117.111 47.462 10.889-13.858 25.242-26.641 43.486-33.604 18.108-6.929 37.615-12.169 60.774-12.868 75.725-2.304 144.93 45.5 187.972 83.217 2.287-6.656 4.693-13.158 7.339-19.183 8.533-19.541 24.337-60.74 67.226-64.034 8.67-0.666 18.005 1.092 27.972 3.362 9.95 2.202 20.173 5.222 30.618 8.977 10.462 3.789 20.89 8.090 31.215 12.919 7.526 3.499 14.814 7.066 21.999 10.667 2.287-5.854 5.291-11.025 9.028-15.497 5.461-6.468 12.578-11.469 21.385-15.070 8.789-3.601 19.644-5.359 32.529-5.359 14.37 0 29.542 2.594 45.534 7.817 16.009 5.205 31.642 11.725 47.036 19.524 15.343 7.799 29.696 16.367 42.957 25.668 4.318 3.038 8.329 5.99 12.186 8.892 1.434-9.677 3.721-18.79 6.844-27.324 4.079-11.127 8.277-16.367 16.725-23.654 8.448-7.322 22.477-10.923 37.837-10.923 7.953 0 21.828 5.564 31.454 13.636 9.591 8.073 14.114 12.732 23.893 25.395 9.779 12.629 19.285 26.726 28.45 42.359 9.148 15.599 17.34 30.874 24.542 45.739 0.256-9.438 38.417-63.181 90.726-64.034 19.251-0.324 41.762 6.468 63.044 15.36 10.035-22.699 30.327-53.231 62.72-65.638 18.074-6.929 37.581-12.169 60.757-12.868 61.030-1.826 121.754 31.283 161.024 76.629 13.090 15.121 25.327 31.437 34.048 49.476 20.548 42.598 31.642 89.259 40.243 135.509 0.666 3.533 7.373 27.034 5.12 29.201 12.442-12.066 20.429-20.497 42.581-34.031-20.924-108.134-43.025-259.499 60.092-256.819 25.429 0.649 49.63 28.621 66.611 56.747 5.001-11.401 11.349-21.265 19.166-29.457 8.67-9.045 18.671-15.991 29.952-20.821 11.264-4.813 22.852-7.27 34.765-7.27 13.619 0 27.682 3.618 42.189 10.889 14.541 7.219 28.467 16.708 41.847 28.501l-8.175-44.954c-44.134-10.718-141.517-48.725-154.129-169.216-5.973-56.866 41.301-124.484 96.956-124.484 44.612 0 97.963 9.796 119.945 128.137 2.594 13.961 5.871 25.993 7.219 36.727 1.365 10.701 2.816 21.965 4.318 33.809 0.324 4.233 3.072 26.095 4.147 33.365 31.027 4.454 62.14-24.951 67.123 13.875 3.243 25.054-50.449 41.25-59.87 44.066zM197.581 388.369c-7.68-12.937-15.718-24.542-24.183-34.765-3.618-4.471-7.543-8.772-11.742-12.885s-8.482-7.799-12.919-11.025c-4.42-3.226-62.72-41.045-62.822 22.323-0.154 97.229 63.334 191.369 122.999 129.434 0-5.359-11.537-89.532-11.332-93.082zM286.652 541.252c-0.802 12.988-1.331 26.044-1.399 39.117 0.631 14.507 1.775 29.952 3.482 46.507 3.55 34.065 5.308 51.098 5.308 51.098s3.772 18.551 11.298 55.62c7.475 37.052 14.421 63.966 20.77 80.691 6.332 16.725 12.988 30.157 19.951 40.26 6.946 10.121 13.841 15.479 20.617 16.111 1.894 0.188 3.209-2.27 4.062-7.356 0.819-5.052 1.57-11.196 2.253-18.432-0.119-22.852-3.038-47.787-8.789-74.82-5.717-27.017-12.919-54.238-21.606-81.681-8.687-27.392-18.108-54.153-28.297-80.196-9.609-24.61-18.842-46.848-27.648-66.918zM515.789 541.542c15.036 2.884 33.929-4.625 33.195-36.079-1.143-50.842-80.009-97.417-88.866-98.662-0.717 5.291-6.622 122.743 55.671 134.741zM762.965 528.708c-0.7 25.429 1.007 55.125 5.069 89.139s6.093 51.012 6.093 51.029c0 0 4.079 18.466 12.169 55.415 8.107 36.949 15.462 63.727 22.084 80.35s19.285 63.13 43.537 63.13c15.565 0 0.017-81.033-6.127-107.947-6.144-26.948-13.824-54.050-22.921-81.323-9.114-27.273-18.961-53.845-29.559-79.753s-20.736-49.254-30.345-70.042zM1547.81 541.542c15.036 2.884 33.946-4.625 33.212-36.079-1.143-50.842-80.009-97.417-88.866-98.662-0.717 5.291-6.639 122.743 55.654 134.741zM2055.032-3.209c-51.149 3.465-17.067 160.034 55.825 164.932-10.377-77.363-10.155-168.038-55.825-164.932zM81.476 63.607v-64.7h-21.897v64.7l-59.58 97.946h19.285c1.98 0 3.533-0.478 4.659-1.485 1.143-1.007 2.133-2.219 2.97-3.635l37.205-63.215c1.536-2.645 2.782-5.154 3.823-7.475 1.007-2.355 1.929-4.625 2.782-6.912 0.819 2.355 1.741 4.676 2.697 7.014 1.024 2.372 2.253 4.83 3.755 7.407l37.12 63.215c0.683 1.178 1.604 2.389 2.782 3.465 1.143 1.075 2.697 1.655 4.591 1.655h19.558l-59.75-97.98zM174.985 115.661c8.414 0 16.009-1.365 22.75-4.181 6.775-2.799 12.527-6.758 17.271-11.913 4.71-5.137 8.346-11.366 10.889-18.671s3.823-15.445 3.823-24.474c0-9.062-1.263-17.254-3.823-24.508-2.509-7.27-6.161-13.483-10.889-18.637-4.727-5.137-10.479-9.097-17.271-11.844-6.758-2.765-14.336-4.147-22.75-4.147-8.38 0-15.991 1.382-22.75 4.147-6.758 2.748-12.51 6.724-17.306 11.844-4.762 5.154-8.448 11.366-11.025 18.637-2.543 7.253-3.857 15.394-3.857 24.508 0 8.994 1.297 17.169 3.857 24.474 2.577 7.305 6.263 13.534 11.025 18.671 4.762 5.171 10.53 9.114 17.306 11.913 6.775 2.816 14.37 4.181 22.75 4.181zM174.985 13.107c11.366 0 19.831 3.823 25.429 11.401 5.615 7.612 8.414 18.193 8.414 31.829 0 13.705-2.799 24.371-8.414 32.017-5.598 7.629-14.063 11.452-25.429 11.452-5.751 0-10.718-0.99-14.985-2.953-4.233-1.946-7.765-4.779-10.615-8.499-2.816-3.721-4.949-8.277-6.349-13.687-1.382-5.393-2.065-11.52-2.065-18.33 0-6.793 0.683-12.885 2.099-18.261 1.399-5.359 3.533-9.899 6.349-13.568 2.85-3.669 6.383-6.468 10.615-8.431 4.233-1.997 9.216-2.97 14.95-2.97zM267.622 113.869v-73.318c0-8.704 1.98-15.411 6.025-20.19 4.011-4.779 10.052-7.168 18.142-7.168 5.922 0 11.452 1.399 16.708 4.198 5.205 2.799 10.018 6.707 14.404 11.708v84.77h20.207v-114.961h-12.032c-2.867 0-4.693 1.434-5.427 4.233l-1.604 12.373c-5.001-5.53-10.598-9.984-16.794-13.346-6.195-3.345-13.312-5.035-21.333-5.035-6.298 0-11.793 1.058-16.623 3.157-4.796 2.031-8.823 5.001-12.083 8.772-3.26 3.806-5.7 8.363-7.322 13.756-1.655 5.342-2.475 11.298-2.475 17.801v73.318h20.224v-0.068zM371.78-1.092v114.961h11.588c2.202 0 3.721-0.393 4.557-1.229 0.836-0.853 1.417-2.27 1.707-4.301l1.365-17.954c3.942 8.021 8.806 14.285 14.592 18.79 5.786 4.523 12.561 6.758 20.343 6.758 3.191 0 6.059-0.358 8.619-1.058 2.56-0.734 4.949-1.741 7.151-3.004l-2.594-15.121c-0.529-1.877-1.707-2.833-3.516-2.833-1.075 0-2.697 0.358-4.898 1.075-2.185 0.7-5.274 1.058-9.182 1.058-7.049 0-12.919-2.048-17.664-6.127-4.693-4.096-8.67-10.001-11.844-17.801v-73.233h-20.224zM507.068-1.092v114.961h12.032c2.867 0 4.676-1.399 5.444-4.181l1.587-12.476c5.001 5.53 10.581 9.967 16.742 13.397 6.127 3.396 13.278 5.103 21.385 5.103 6.281 0 11.793-1.058 16.623-3.106 4.813-2.099 8.841-5.069 12.032-8.892 3.226-3.857 5.666-8.414 7.322-13.79 1.69-5.376 2.509-11.332 2.509-17.835v-73.199h-20.224v73.199c0 8.704-1.98 15.445-5.973 20.275-3.959 4.796-10.018 7.202-18.21 7.202-5.99 0-11.554-1.434-16.708-4.301-5.188-2.884-9.967-6.758-14.353-11.708v-84.668l-20.207 0.017zM674.236 115.661c6.895 0 13.244-1.126 19.063-3.43 5.82-2.338 10.854-5.632 15.104-10.001 4.233-4.369 7.543-9.694 9.933-16.111 2.389-6.4 3.567-13.67 3.567-21.811 0-3.209-0.341-5.308-1.024-6.366-0.7-1.058-1.98-1.604-3.874-1.604h-76.493c0.154-7.27 1.143-13.568 2.953-18.927 1.809-5.376 4.318-9.847 7.492-13.466 3.174-3.601 6.929-6.246 11.349-8.038 4.386-1.792 9.284-2.697 14.729-2.697 5.069 0 9.455 0.597 13.124 1.775 3.669 1.143 6.81 2.458 9.472 3.823s4.864 2.611 6.639 3.823c1.775 1.178 3.311 1.758 4.625 1.758 1.673 0 2.935-0.631 3.857-1.929l5.683-7.39c-2.492-3.021-5.478-5.649-8.96-7.885-3.482-2.219-7.202-4.062-11.179-5.495s-8.073-2.492-12.322-3.209c-4.233-0.751-8.431-1.092-12.578-1.092-7.953 0-15.292 1.348-21.965 4.028-6.707 2.697-12.476 6.639-17.391 11.793-4.864 5.188-8.687 11.605-11.401 19.234s-4.079 16.401-4.079 26.334c0 8.021 1.246 15.497 3.686 22.46 2.441 6.946 6.007 13.005 10.615 18.108s10.257 9.131 16.913 12.032c6.656 2.85 14.148 4.284 22.46 4.284zM674.697 100.83c-9.762 0-17.425-2.833-23.040-8.465s-9.097-13.449-10.445-23.433h62.515c0 4.659-0.631 8.96-1.929 12.885-1.28 3.891-3.174 7.287-5.666 10.086-2.492 2.85-5.53 5.069-9.114 6.605-3.601 1.519-7.714 2.321-12.322 2.321zM765.594 149.965c0-1.98-0.41-3.84-1.195-5.495-0.785-1.724-1.826-3.209-3.174-4.557-1.331-1.314-2.85-2.355-4.608-3.123-1.741-0.768-3.601-1.126-5.564-1.126-1.946 0-3.806 0.358-5.495 1.126-1.724 0.768-3.209 1.775-4.54 3.123-1.348 1.314-2.389 2.833-3.14 4.557-0.751 1.707-1.126 3.516-1.126 5.495 0 1.963 0.375 3.84 1.126 5.615 0.734 1.775 1.775 3.311 3.14 4.642 1.314 1.314 2.816 2.372 4.54 3.14 1.707 0.751 3.55 1.092 5.495 1.092 1.963 0 3.84-0.358 5.564-1.092 1.758-0.768 3.26-1.792 4.608-3.14s2.389-2.901 3.174-4.642c0.785-1.775 1.195-3.652 1.195-5.615zM761.054 113.869v-114.961h-20.207v114.961h20.207zM830.857 115.797c4.983 0 9.626-0.529 13.978-1.638 4.369-1.092 8.311-2.731 11.861-4.83h31.215v-7.492c0-2.492-1.587-4.062-4.779-4.727l-13.056-1.809c2.543-4.915 3.874-10.377 3.874-16.469 0-5.598-1.058-10.684-3.209-15.292-2.15-4.574-5.171-8.465-8.96-11.742-3.823-3.26-8.363-5.751-13.619-7.492s-11.025-2.594-17.306-2.594c-5.376 0-10.445 0.666-15.223 1.929-2.441-1.587-4.267-3.226-5.513-5.052-1.229-1.809-1.86-3.567-1.86-5.291 0-2.816 1.092-4.949 3.277-6.383 2.236-1.451 5.137-2.492 8.755-3.123 3.635-0.631 7.765-0.956 12.39-0.956s9.318 0 14.114 0c4.813 0 9.54-0.41 14.148-1.28 4.625-0.819 8.721-2.219 12.373-4.13 3.635-1.894 6.571-4.557 8.755-7.936 2.202-3.362 3.277-7.697 3.277-13.107 0-4.966-1.212-9.796-3.669-14.473-2.475-4.659-6.007-8.858-10.633-12.459-4.608-3.635-10.257-6.537-16.913-8.738s-14.199-3.26-22.562-3.26c-8.414 0-15.77 0.836-22.067 2.492-6.332 1.673-11.571 3.908-15.735 6.724-4.147 2.782-7.287 6.042-9.353 9.694-2.082 3.686-3.14 7.509-3.14 11.537 0 5.683 1.775 10.513 5.41 14.49 3.584 3.977 8.533 7.134 14.797 9.506-3.226 1.519-5.837 3.533-7.782 6.042-1.911 2.526-2.884 5.922-2.884 10.155 0 1.673 0.307 3.362 0.905 5.154 0.58 1.775 1.536 3.55 2.782 5.291s2.765 3.379 4.608 4.983c1.809 1.587 3.925 2.987 6.366 4.198-5.683 3.191-10.121 7.39-13.346 12.646-3.209 5.274-4.813 11.401-4.813 18.432 0 5.598 1.058 10.701 3.226 15.292 2.15 4.54 5.154 8.448 9.028 11.691 3.874 3.209 8.465 5.683 13.79 7.441 5.291 1.707 11.127 2.577 17.493 2.577zM866.697-6.895c0 2.935-0.768 5.274-2.372 7.031-1.621 1.775-3.755 3.174-6.468 4.113-2.731 0.99-5.871 1.69-9.438 2.133-3.55 0.444-7.287 0.7-11.196 0.7-3.942 0-7.97 0-12.049 0s-8.004 0.478-11.691 1.536c-4.301-2.048-7.817-4.557-10.513-7.509-2.662-2.935-3.994-6.468-3.994-10.564 0-2.543 0.649-4.966 1.997-7.202 1.297-2.236 3.328-4.164 6.042-5.803 2.731-1.638 6.144-2.901 10.291-3.891 4.13-0.956 8.977-1.417 14.575-1.417 5.444 0 10.308 0.495 14.626 1.502 4.318 1.041 7.97 2.441 10.957 4.301 2.987 1.826 5.274 4.045 6.861 6.605 1.604 2.526 2.372 5.359 2.372 8.465zM830.857 55.108c4.062 0 7.68 0.546 10.82 1.707 3.157 1.126 5.769 2.731 7.902 4.762s3.703 4.489 4.762 7.339c1.058 2.833 1.587 5.973 1.587 9.37 0 7.014-2.133 12.629-6.4 16.759-4.267 4.164-10.513 6.263-18.671 6.263-8.124 0-14.285-2.099-18.551-6.263-4.284-4.13-6.4-9.745-6.4-16.759 0-3.396 0.529-6.537 1.638-9.37 1.075-2.85 2.714-5.308 4.83-7.339s4.71-3.635 7.834-4.762c3.072-1.161 6.639-1.707 10.65-1.707zM912.674-1.092v167.202h20.207v-67.669c4.915 5.257 10.342 9.438 16.333 12.544 5.973 3.157 12.868 4.676 20.651 4.676 6.281 0 11.827-1.041 16.623-3.106 4.813-2.099 8.841-5.052 12.032-8.875 3.226-3.84 5.666-8.414 7.339-13.807 1.673-5.359 2.492-11.298 2.492-17.801v-73.233h-20.207v73.233c0 8.704-1.997 15.428-5.99 20.258-3.959 4.813-10.035 7.202-18.193 7.202-6.007 0-11.554-1.434-16.725-4.301-5.188-2.884-9.967-6.775-14.353-11.725v-84.668h-20.207v0.068zM1035.008-1.092v167.202h20.309v-68.779c4.762 5.513 10.257 9.984 16.384 13.346 6.178 3.328 13.227 5.035 21.163 5.035 6.656 0 12.681-1.246 18.057-3.738 5.359-2.492 9.95-6.229 13.756-11.196 3.772-4.949 6.707-11.059 8.721-18.364 2.065-7.305 3.072-15.718 3.072-25.259 0-8.465-1.126-16.333-3.396-23.671-2.287-7.287-5.53-13.602-9.813-18.893-4.284-5.342-9.506-9.591-15.65-12.612-6.178-3.055-13.141-4.625-20.821-4.625-7.458 0-13.739 1.434-18.91 4.335-5.188 2.867-9.711 6.861-13.568 11.998l-1.041-10.394c-0.597-2.901-2.338-4.335-5.222-4.335h-13.039v-0.051zM1086.327 99.567c-6.588 0-12.39-1.502-17.323-4.54-4.966-3.038-9.523-7.305-13.687-12.834v-55.637c3.635-4.966 7.663-8.465 12.083-10.53 4.437-2.031 9.353-3.072 14.814-3.072 10.735 0 18.978 3.84 24.73 11.469s8.619 18.569 8.619 32.666c0 7.492-0.666 13.943-1.997 19.337-1.314 5.342-3.209 9.745-5.717 13.193-2.492 3.447-5.564 5.973-9.182 7.526-3.618 1.638-7.748 2.423-12.339 2.423zM1203.2 115.661c8.414 0 16.009-1.365 22.75-4.181 6.758-2.799 12.527-6.758 17.254-11.913 4.727-5.137 8.363-11.366 10.906-18.671s3.823-15.445 3.823-24.474c0-9.062-1.28-17.254-3.823-24.508-2.526-7.27-6.161-13.483-10.906-18.637-4.71-5.137-10.479-9.097-17.254-11.844-6.758-2.765-14.353-4.147-22.75-4.147s-15.991 1.382-22.75 4.147c-6.758 2.748-12.51 6.724-17.323 11.844-4.762 5.154-8.431 11.366-11.008 18.637-2.56 7.253-3.874 15.394-3.874 24.508 0 8.994 1.297 17.169 3.874 24.474s6.229 13.534 11.008 18.671c4.779 5.171 10.547 9.114 17.323 11.913 6.758 2.816 14.353 4.181 22.75 4.181zM1203.2 13.107c11.366 0 19.814 3.823 25.429 11.401 5.598 7.612 8.397 18.193 8.397 31.829 0 13.705-2.799 24.371-8.397 32.017-5.615 7.629-14.063 11.452-25.429 11.452-5.751 0-10.735-0.99-14.985-2.953-4.233-1.946-7.765-4.779-10.615-8.499-2.833-3.721-4.966-8.277-6.349-13.687-1.417-5.393-2.099-11.52-2.099-18.33 0-6.793 0.7-12.885 2.099-18.261 1.382-5.359 3.516-9.899 6.349-13.568 2.85-3.669 6.383-6.468 10.615-8.431 4.25-1.997 9.233-2.97 14.985-2.97zM1273.788-1.092v114.961h11.588c2.185 0 3.703-0.393 4.54-1.229 0.836-0.853 1.417-2.27 1.724-4.301l1.365-17.954c3.925 8.021 8.806 14.285 14.575 18.79 5.786 4.523 12.578 6.758 20.361 6.758 3.174 0 6.042-0.358 8.636-1.058 2.543-0.734 4.949-1.741 7.134-3.004l-2.611-15.121c-0.546-1.877-1.69-2.833-3.516-2.833-1.058 0-2.679 0.358-4.898 1.075-2.167 0.7-5.239 1.058-9.182 1.058-7.049 0-12.919-2.048-17.63-6.127-4.745-4.096-8.704-10.001-11.861-17.801v-73.233h-20.224zM1359.138-1.092v167.202h20.207v-67.669c4.915 5.257 10.377 9.438 16.35 12.544s12.851 4.676 20.634 4.676c6.281 0 11.81-1.041 16.64-3.106 4.796-2.099 8.823-5.052 12.032-8.875 3.209-3.84 5.649-8.414 7.339-13.807 1.673-5.359 2.492-11.298 2.492-17.801v-73.233h-20.207v73.233c0 8.704-1.963 15.428-5.956 20.258-3.959 4.813-10.052 7.202-18.193 7.202-6.007 0-11.588-1.434-16.759-4.301-5.171-2.884-9.95-6.775-14.353-11.725v-84.668h-20.207v0.068zM1527.33 115.661c8.397 0 16.009-1.365 22.75-4.181 6.758-2.799 12.527-6.758 17.254-11.913 4.727-5.137 8.38-11.366 10.923-18.671 2.509-7.305 3.806-15.445 3.806-24.474 0-9.062-1.28-17.254-3.806-24.508-2.526-7.27-6.161-13.483-10.923-18.637-4.71-5.137-10.462-9.097-17.254-11.844-6.758-2.765-14.353-4.147-22.75-4.147s-15.991 1.382-22.75 4.147c-6.758 2.748-12.544 6.724-17.306 11.844-4.762 5.154-8.448 11.366-11.025 18.637-2.543 7.253-3.857 15.394-3.857 24.508 0 8.994 1.28 17.169 3.857 24.474s6.263 13.534 11.025 18.671c4.745 5.171 10.53 9.114 17.306 11.913 6.758 2.816 14.353 4.181 22.75 4.181zM1527.33 13.107c11.366 0 19.831 3.823 25.429 11.401 5.598 7.612 8.38 18.193 8.38 31.829 0 13.705-2.799 24.371-8.38 32.017-5.615 7.629-14.080 11.452-25.429 11.452-5.751 0-10.735-0.99-14.985-2.953-4.233-1.946-7.765-4.779-10.598-8.499-2.85-3.721-4.966-8.277-6.366-13.687s-2.099-11.52-2.099-18.33c0-6.793 0.717-12.885 2.099-18.261 1.399-5.359 3.533-9.899 6.366-13.568s6.366-6.468 10.598-8.431c4.25-1.997 9.233-2.97 14.985-2.97zM1648.998 115.661c8.414 0 16.009-1.365 22.75-4.181 6.793-2.799 12.544-6.758 17.271-11.913 4.727-5.137 8.346-11.366 10.906-18.671 2.509-7.305 3.806-15.445 3.806-24.474 0-9.062-1.263-17.254-3.806-24.508-2.526-7.27-6.144-13.483-10.906-18.637-4.71-5.137-10.462-9.097-17.271-11.844-6.758-2.765-14.336-4.147-22.75-4.147-8.397 0-15.991 1.382-22.75 4.147-6.758 2.748-12.527 6.724-17.306 11.844-4.779 5.154-8.431 11.366-11.025 18.637-2.56 7.253-3.874 15.394-3.874 24.508 0 8.994 1.297 17.169 3.874 24.474s6.229 13.534 11.025 18.671c4.762 5.171 10.53 9.114 17.306 11.913 6.758 2.816 14.353 4.181 22.75 4.181zM1648.998 13.107c11.366 0 19.831 3.823 25.412 11.401 5.615 7.612 8.414 18.193 8.414 31.829 0 13.705-2.799 24.371-8.414 32.017-5.581 7.629-14.063 11.452-25.412 11.452-5.734 0-10.735-0.99-14.967-2.953-4.233-1.946-7.782-4.779-10.615-8.499s-4.966-8.277-6.349-13.687c-1.417-5.393-2.116-11.52-2.116-18.33 0-6.793 0.7-12.885 2.116-18.261 1.399-5.359 3.516-9.899 6.349-13.568 2.85-3.669 6.4-6.468 10.615-8.431 4.215-1.997 9.216-2.97 14.967-2.97zM1805.056-1.092c-2.901 0-4.693 1.434-5.461 4.233l-1.792 13.926c-4.932-6.007-10.513-10.769-16.845-14.353-6.315-3.601-13.568-5.393-21.726-5.393-6.571 0-12.544 1.263-17.937 3.823-5.359 2.526-9.933 6.263-13.739 11.162-3.789 4.915-6.707 11.025-8.755 18.381s-3.072 15.787-3.072 25.31c0 8.465 1.143 16.367 3.413 23.671s5.547 13.636 9.813 18.995c4.284 5.359 9.472 9.591 15.599 12.629 6.11 3.089 13.090 4.625 20.89 4.625 7.031 0 13.056-1.178 18.057-3.567 4.983-2.389 9.455-5.734 13.38-10.052v63.761h20.224v-167.168h-12.049v0.017zM1765.905 13.653c6.571 0 12.339 1.553 17.306 4.557 4.949 3.055 9.523 7.322 13.67 12.834v55.62c-3.721 5.001-7.782 8.499-12.203 10.479-4.437 2.031-9.318 3.021-14.694 3.021-10.735 0-18.961-3.823-24.713-11.452-5.769-7.646-8.636-18.534-8.636-32.683 0-7.475 0.631-13.892 1.911-19.251 1.28-5.325 3.191-9.711 5.683-13.158 2.492-3.43 5.547-5.939 9.182-7.526s7.765-2.441 12.493-2.441zM1839.889 11.401c0 1.963 0.358 3.84 1.058 5.547 0.7 1.758 1.724 3.243 2.953 4.557 1.229 1.28 2.731 2.304 4.506 3.072 1.724 0.768 3.584 1.126 5.513 1.126 1.98 0 3.857-0.358 5.581-1.126 1.758-0.768 3.243-1.775 4.557-3.072 1.263-1.297 2.287-2.799 3.021-4.557 0.717-1.758 1.058-3.584 1.058-5.547 0-2.048-0.358-3.925-1.058-5.632-0.734-1.69-1.758-3.209-3.021-4.471-1.28-1.297-2.799-2.304-4.557-3.004-1.758-0.734-3.601-1.092-5.581-1.092-1.929 0-3.823 0.358-5.513 1.092-1.775 0.7-3.243 1.707-4.506 3.004-1.229 1.263-2.253 2.765-2.953 4.471-0.717 1.707-1.058 3.584-1.058 5.632zM2541.363 80.162c0-12.169-1.929-23.262-5.803-33.246s-9.301-18.534-16.333-25.634c-7.049-7.117-15.462-12.629-25.31-16.555-9.83-3.908-20.736-5.837-32.666-5.837h-60.809v162.628h60.809c11.93 0 22.835-1.929 32.666-5.854 9.847-3.908 18.261-9.455 25.31-16.589 7.031-7.168 12.459-15.735 16.333-25.702s5.803-21.043 5.803-33.212zM2518.784 80.162c0 9.984-1.365 18.893-4.062 26.795-2.731 7.834-6.622 14.507-11.605 19.934-5.001 5.461-11.025 9.609-18.142 12.476-7.1 2.901-15.019 4.335-23.723 4.335h-38.724v-126.976h38.724c8.704 0 16.623 1.434 23.723 4.301 7.117 2.867 13.158 6.997 18.142 12.425 4.983 5.41 8.875 12.049 11.605 19.934 2.697 7.868 4.062 16.777 4.062 26.778zM2609.118 115.661c6.878 0 13.244-1.126 19.063-3.43 5.82-2.338 10.854-5.632 15.104-10.001 4.233-4.369 7.543-9.694 9.916-16.111 2.406-6.4 3.584-13.67 3.584-21.811 0-3.209-0.341-5.308-1.041-6.366-0.666-1.058-1.963-1.604-3.874-1.604h-76.476c0.154-7.27 1.143-13.568 2.953-18.927 1.809-5.376 4.318-9.847 7.492-13.466 3.174-3.601 6.946-6.246 11.349-8.038 4.386-1.792 9.284-2.697 14.729-2.697 5.086 0 9.455 0.597 13.141 1.775 3.669 1.143 6.793 2.458 9.472 3.823s4.864 2.611 6.639 3.823c1.775 1.178 3.311 1.758 4.625 1.758 1.69 0 2.953-0.631 3.874-1.929l5.683-7.39c-2.492-3.021-5.478-5.649-8.943-7.885-3.482-2.219-7.219-4.062-11.179-5.495s-8.090-2.492-12.322-3.209c-4.233-0.751-8.431-1.092-12.595-1.092-7.953 0-15.292 1.348-21.965 4.028-6.707 2.697-12.459 6.639-17.374 11.793-4.864 5.188-8.687 11.605-11.401 19.234s-4.079 16.401-4.079 26.334c0 8.021 1.229 15.497 3.703 22.46 2.441 6.946 5.99 13.005 10.598 18.108s10.257 9.131 16.913 12.032c6.588 2.85 14.097 4.284 22.409 4.284zM2609.562 100.83c-9.745 0-17.425-2.833-23.023-8.465-5.615-5.632-9.114-13.449-10.445-23.433h62.515c0 4.659-0.631 8.96-1.929 12.885-1.28 3.891-3.174 7.287-5.666 10.086-2.492 2.85-5.53 5.069-9.131 6.605-3.601 1.553-7.697 2.321-12.322 2.321zM2695.936 166.059v-167.168h-20.207v167.168h20.207zM2754.048 149.965c0-1.98-0.393-3.84-1.212-5.495-0.785-1.724-1.809-3.209-3.157-4.557-1.348-1.314-2.867-2.355-4.625-3.123-1.741-0.768-3.601-1.126-5.53-1.126-1.963 0-3.823 0.358-5.495 1.126-1.724 0.768-3.226 1.775-4.557 3.123-1.314 1.314-2.389 2.833-3.14 4.557-0.768 1.707-1.109 3.516-1.109 5.495 0 1.963 0.358 3.84 1.109 5.615s1.792 3.311 3.14 4.642c1.297 1.314 2.833 2.372 4.557 3.14 1.707 0.751 3.533 1.092 5.495 1.092 1.929 0 3.823-0.358 5.53-1.092 1.775-0.768 3.26-1.792 4.625-3.14 1.314-1.331 2.372-2.901 3.157-4.642 0.802-1.775 1.212-3.652 1.212-5.615zM2749.508 113.869v-114.961h-20.224v114.961h20.224zM2770.142 113.869h16.589c1.57 0 2.901-0.393 3.959-1.229 1.058-0.853 1.792-1.809 2.27-2.953l29.167-74.001c1.058-2.714 1.894-5.444 2.492-8.175 0.597-2.714 1.161-5.393 1.724-8.038 0.597 2.611 1.246 5.325 1.911 8.038 0.683 2.731 1.57 5.427 2.594 8.175l29.508 74.001c0.444 1.195 1.178 2.219 2.219 3.021s2.287 1.161 3.806 1.161h15.787l-46.865-114.961h-18.261l-46.899 114.961zM2942.976 115.661c6.895 0 13.227-1.126 19.063-3.43 5.837-2.338 10.854-5.632 15.104-10.001 4.233-4.369 7.543-9.694 9.933-16.111 2.372-6.4 3.567-13.67 3.567-21.811 0-3.209-0.358-5.308-1.041-6.366s-1.963-1.604-3.874-1.604h-76.476c0.171-7.27 1.126-13.568 2.97-18.927 1.809-5.376 4.318-9.847 7.475-13.466 3.191-3.601 6.946-6.246 11.349-8.038 4.386-1.792 9.301-2.697 14.746-2.697 5.069 0 9.438 0.597 13.107 1.775 3.686 1.143 6.827 2.458 9.489 3.823s4.847 2.611 6.656 3.823c1.775 1.178 3.311 1.758 4.608 1.758 1.69 0 2.935-0.631 3.874-1.929l5.683-7.39c-2.492-3.021-5.495-5.649-8.96-7.885-3.482-2.219-7.202-4.062-11.162-5.495s-8.090-2.492-12.339-3.209c-4.215-0.751-8.414-1.092-12.595-1.092-7.936 0-15.258 1.348-21.931 4.028-6.724 2.697-12.476 6.639-17.391 11.793s-8.687 11.605-11.401 19.234c-2.731 7.629-4.079 16.401-4.079 26.334 0 8.021 1.212 15.497 3.703 22.46 2.458 6.946 6.007 13.005 10.598 18.108 4.625 5.103 10.274 9.131 16.913 12.032 6.622 2.85 14.097 4.284 22.409 4.284zM2943.454 100.83c-9.745 0-17.425-2.833-23.040-8.465s-9.097-13.449-10.445-23.433h62.532c0 4.659-0.631 8.96-1.911 12.885-1.28 3.891-3.209 7.287-5.666 10.086-2.492 2.85-5.53 5.069-9.131 6.605-3.618 1.553-7.731 2.321-12.339 2.321zM3011.891-1.092v114.961h11.571c2.202 0 3.703-0.393 4.557-1.229 0.853-0.853 1.399-2.27 1.724-4.301l1.348-17.954c3.925 8.021 8.823 14.285 14.575 18.79 5.769 4.523 12.561 6.758 20.361 6.758 3.174 0 6.042-0.358 8.636-1.058 2.56-0.734 4.949-1.741 7.151-3.004l-2.611-15.121c-0.512-1.877-1.707-2.833-3.516-2.833-1.058 0-2.662 0.358-4.864 1.075-2.219 0.7-5.291 1.058-9.182 1.058-7.049 0-12.954-2.048-17.664-6.127-4.71-4.096-8.67-10.001-11.844-17.801v-73.233h-20.241zM3139.789 115.661c6.861 0 13.21-1.126 19.063-3.43 5.82-2.338 10.871-5.632 15.087-10.001 4.25-4.369 7.526-9.694 9.95-16.111 2.372-6.4 3.567-13.67 3.567-21.811 0-3.209-0.358-5.308-1.041-6.366-0.7-1.058-1.98-1.604-3.874-1.604h-76.493c0.154-7.27 1.126-13.568 2.953-18.927 1.826-5.376 4.318-9.847 7.492-13.466 3.174-3.601 6.963-6.246 11.349-8.038s9.301-2.697 14.746-2.697c5.069 0 9.438 0.597 13.107 1.775 3.686 1.143 6.827 2.458 9.489 3.823s4.864 2.611 6.673 3.823c1.775 1.178 3.277 1.758 4.591 1.758 1.673 0 2.953-0.631 3.891-1.929l5.683-7.39c-2.509-3.021-5.495-5.649-8.977-7.885-3.482-2.219-7.202-4.062-11.162-5.495-3.942-1.434-8.090-2.492-12.339-3.209-4.215-0.751-8.414-1.092-12.578-1.092-7.953 0-15.275 1.348-21.965 4.028-6.69 2.697-12.459 6.639-17.374 11.793-4.847 5.188-8.67 11.605-11.401 19.234-2.714 7.629-4.079 16.401-4.079 26.334 0 8.021 1.229 15.497 3.686 22.46 2.492 6.946 6.025 13.005 10.615 18.108 4.625 5.103 10.274 9.131 16.913 12.032 6.605 2.85 14.097 4.284 22.426 4.284zM3140.233 100.83c-9.745 0-17.425-2.833-23.040-8.465s-9.097-13.449-10.445-23.433h62.532c0 4.659-0.649 8.96-1.929 12.885-1.263 3.891-3.174 7.287-5.666 10.086-2.492 2.85-5.513 5.069-9.114 6.605-3.618 1.553-7.714 2.321-12.339 2.321zM3289.583-1.092c-2.867 0-4.676 1.434-5.427 4.233l-1.809 13.926c-4.898-6.007-10.53-10.769-16.828-14.353-6.332-3.601-13.568-5.393-21.709-5.393-6.588 0-12.561 1.263-17.937 3.823-5.376 2.526-9.95 6.263-13.773 11.162-3.789 4.915-6.707 11.025-8.738 18.381s-3.055 15.787-3.055 25.31c0 8.465 1.092 16.367 3.362 23.671 2.304 7.305 5.564 13.636 9.83 18.995s9.489 9.591 15.599 12.629c6.127 3.089 13.107 4.625 20.907 4.625 7.014 0 13.056-1.178 18.039-3.567 5.001-2.389 9.472-5.734 13.397-10.052v63.761h20.207v-167.168h-12.066v0.017zM3250.432 13.653c6.588 0 12.373 1.553 17.323 4.557 4.932 3.055 9.523 7.322 13.687 12.834v55.62c-3.721 5.001-7.765 8.499-12.203 10.479-4.454 2.031-9.335 3.021-14.694 3.021-10.735 0-18.995-3.823-24.73-11.452-5.751-7.646-8.636-18.534-8.636-32.683 0-7.475 0.631-13.892 1.946-19.251 1.28-5.325 3.174-9.711 5.649-13.158 2.492-3.43 5.564-5.939 9.199-7.526 3.618-1.587 7.765-2.441 12.459-2.441zM3327.010 11.401c0 1.963 0.358 3.84 1.058 5.547 0.734 1.758 1.741 3.243 2.987 4.557 1.229 1.28 2.714 2.304 4.471 3.072s3.601 1.126 5.581 1.126c1.946 0 3.823-0.358 5.53-1.126 1.758-0.768 3.243-1.775 4.557-3.072s2.287-2.799 3.021-4.557c0.717-1.758 1.075-3.584 1.075-5.547 0-2.048-0.358-3.925-1.075-5.632-0.734-1.69-1.724-3.209-3.021-4.471-1.28-1.297-2.799-2.304-4.557-3.004-1.741-0.734-3.584-1.092-5.53-1.092-1.98 0-3.857 0.358-5.581 1.092-1.758 0.7-3.209 1.707-4.471 3.004-1.246 1.263-2.253 2.765-2.987 4.471-0.683 1.707-1.058 3.584-1.058 5.632z" />
<glyph unicode="&#xe60b;" glyph-name="left-arrow" horiz-adv-x="480" d="M429.824 954.848l42.272-34.56-388.992-475.68 388.896-470.272-42.080-34.784-417.536 504.864z" />
<glyph unicode="&#xe60c;" glyph-name="down-arrow-thick" horiz-adv-x="2048" d="M1033.76-61.952l-1032.16 844.096 143.904 176 887.456-725.696 877.088 725.312 144.928-175.232z" />
<glyph unicode="&#xe60d;" glyph-name="twitter" horiz-adv-x="1120" d="M982.712 838.154c-91.076 81.226-224.712 121.846-400.698 121.846-101.752 0-189.758-15.48-263.896-46.442-74.246-30.89-134.674-72.56-181.306-124.752-46.68-52.226-81.084-111.698-103.366-178.402-22.318-66.714-33.448-134.84-33.448-204.472 0-83.212 12.804-154.302 38.146-213.26 25.616-58.956 61.060-107.312 106.594-144.99 45.652-37.774 100.162-65.794 163.84-84.168 63.582-18.374 134.566-27.53 213.030-27.53 97.496 0 180.074 12.588 247.972 37.726 67.91 25.188 123.998 57.032 168.598 95.702 44.528 38.658 78.932 80.736 103.342 126.246 24.422 45.414 42.354 88.376 54.044 129.044 11.714 40.596 18.624 76.374 20.764 107.312 2.068 30.962 3.096 50.362 3.096 58.084 0.012 150.834-45.558 266.824-136.716 348.050zM954.74 651.528c-9.014-10.736-45.054-49.524-63.596-58.288 7.996-29.622-8.858-148.516-50.828-229.444-41.97-80.916-148.492-208.13-343.306-208.13-194.802 0-254.764 68.95-254.764 68.95s136.372-10.508 208.322 56.938c-73.672 0.084-121.392 65.938-124.394 98.908 46.692-0.49 56.95 6 56.95 6s-113.98 35.264-115.38 146.854c35.084-29.406 67.432-17.978 67.432-17.978-70.062 28.976-64.682 161.008-43.464 194.814 46.13-67.492 184.246-142.36 310.168-152.856 0 0-16.448 119.886 70.48 167.846 86.918 47.958 172.328-32.968 172.328-32.968s31.476 2.988 58.456 14.99c26.98 11.978 31.476 23.956 38.97 20.978 7.496-3-32.98-68.736-61.442-79.338 22.986-1.852 60.366 6.862 71.938 16.378 10.136 8.38 11.044-3.024 2.128-13.652z" />
<glyph unicode="&#xe60e;" glyph-name="merchant" horiz-adv-x="1152" d="M1008 960h-861.328c0 0-144-320-146.672-320v-704h704v599.168c17.488-41.712 58.544-71.104 106.704-71.104 54.608 0 100.272 37.664 112.624 88.352 12.352-50.672 58.032-88.352 112.624-88.352 25.456 0 48.944 8.224 68.048 22.096v-550.16h48v704l-144 320zM797.92 926l76.144-327.12c1.472-4.272 2.496-8.688 3.088-13.296l0.832-3.584h-0.48c0.128-1.696 0.512-3.328 0.512-5.072 0-5.888-0.992-11.488-2.4-16.928-7.536-28.944-33.616-50.4-64.928-50.4s-57.376 21.456-64.928 50.4c-1.408 5.44-2.4 11.040-2.4 16.928 0 1.744 0.384 3.376 0.512 5.072h-0.56l-5.376 58-26.64 286h86.624zM361.408 926h86.624l-26.64-286-5.392-58h-0.752c0.128-1.696 0.512-3.328 0.512-5.072 0-5.888-0.992-11.488-2.4-16.928-7.536-28.944-33.6-50.4-64.928-50.4-31.312 0-57.376 21.456-64.928 50.4-1.408 5.44-2.4 11.040-2.4 16.928 0 1.744 0.384 3.376 0.512 5.072h-0.288l0.496 2.16c0.656 5.968 1.888 11.712 3.984 17.104l9.024 38.736 66.576 286zM48 144v343.36c19.328-14.576 43.328-23.296 69.44-23.296 57.136 0 104.384 41.472 113.808 95.936h3.376c9.424-54.464 56.672-95.936 113.824-95.936 57.136 0 104.384 41.472 113.808 95.936h3.376c9.424-54.464 56.672-95.936 113.808-95.936 29.44 0 56.192 11.056 76.56 29.184v-349.248h-608z" />
<glyph unicode="&#xe60f;" glyph-name="groceries" horiz-adv-x="1042" d="M949.394 487.497h-137.509l-201.874 356.937c5.851 27.794-8.777 55.589-35.109 65.829-29.257 10.24-61.44-4.389-71.68-33.646s4.389-61.44 33.646-71.68c0 0 1.463 0 1.463 0l178.469-317.44h-434.469l179.931 317.44c29.257 10.24 43.886 42.423 33.646 71.68s-42.423 43.886-71.68 33.646c-29.257-10.24-43.886-39.497-36.571-67.291l-200.411-355.474h-112.64c-30.72 0-57.051-24.869-57.051-57.051 0-30.72 24.869-57.051 57.051-57.051h19.017l55.589-349.623c2.926-21.943 24.869-40.96 46.811-40.96h631.954c21.943 0 43.886 17.554 46.811 40.96l55.589 349.623h19.017c30.72 0 57.051 24.869 57.051 57.051 0 30.72-26.331 57.051-57.051 57.051zM772.389 453.851c17.554 0 32.183-14.629 32.183-32.183s-14.629-32.183-32.183-32.183c-17.554 0-32.183 14.629-32.183 32.183-1.463 17.554 13.166 32.183 32.183 32.183zM197.486 421.669c0 17.554 14.629 32.183 32.183 32.183s32.183-14.629 32.183-32.183c0-17.554-14.629-32.183-32.183-32.183-17.554-1.463-32.183 13.166-32.183 32.183zM289.646 82.286h-35.109c-8.777 0-17.554 7.314-17.554 16.091l-23.406 155.063c0 8.777 7.314 17.554 17.554 17.554h35.109c8.777 0 17.554-7.314 17.554-17.554l23.406-155.063c0-8.777-7.314-16.091-17.554-16.091zM418.377 82.286h-43.886c-8.777 0-17.554 7.314-17.554 16.091l-20.48 155.063c0 8.777 7.314 17.554 17.554 17.554h43.886c8.777 0 17.554-7.314 17.554-17.554l20.48-155.063c-1.463-8.777-8.777-16.091-17.554-16.091zM552.96 98.377c0-8.777-7.314-16.091-16.091-16.091h-48.274c-8.777 0-17.554 7.314-17.554 16.091v155.063c0 8.777 7.314 17.554 17.554 17.554h48.274c8.777 0 16.091-7.314 16.091-17.554v-155.063zM667.063 98.377c0-8.777-7.314-16.091-17.554-16.091h-43.886c-8.777 0-17.554 7.314-17.554 16.091l20.48 155.063c0 8.777 7.314 17.554 17.554 17.554h43.886c8.777 0 17.554-7.314 17.554-17.554l-20.48-155.063zM785.554 98.377c0-8.777-7.314-16.091-17.554-16.091h-35.109c-8.777 0-17.554 7.314-17.554 16.091l23.406 155.063c0 8.777 7.314 17.554 17.554 17.554h35.109c8.777 0 17.554-7.314 17.554-17.554l-23.406-155.063z" />
<glyph unicode="&#xe610;" glyph-name="google-plus" horiz-adv-x="1120" d="M982.71 838.162c-91.020 81.204-224.668 121.838-400.67 121.838-101.742 0-189.762-15.456-263.95-46.418-74.212-30.926-134.628-72.562-181.274-124.754-46.692-52.228-81.098-111.688-103.356-178.428-22.33-66.728-33.46-134.82-33.46-204.442 0-83.26 12.792-154.33 38.158-213.346 25.594-58.876 61.050-107.264 106.572-144.898 45.676-37.812 100.188-65.784 163.844-84.218 63.56-18.338 134.556-27.506 213.026-27.506 97.57 0 180.080 12.588 248.014 37.716 67.9 25.164 123.93 57.022 168.556 95.764 44.53 38.6 78.946 80.678 103.356 126.178 24.434 45.426 42.354 88.402 54.046 129.034 11.714 40.68 18.614 76.352 20.766 107.288 2.092 31.010 3.132 50.436 3.132 58.11 0.012 150.886-45.546 266.842-136.756 348.082zM619.778 602.462c0-42.030-21.338-80.858-61.636-112.394-33.1-25.822-36.006-34.226-36.006-51.714 0-12.934 36.294-39.88 50.018-50.16l4.232-3.144c62.976-47.182 80.116-78.264 80.116-144.598 0-40.298-21.852-80.212-59.904-109.31-40.62-31.044-97.356-48.176-159.71-48.176-127.42 0-219.922 54.644-219.922 130.038 0 78.778 81.756 163.332 203.486 163.332 5.022 0 9.874 0.048 14.644 0.12-9.108 10.95-16.342 24.076-16.342 42.448 0 9.24 1.77 18.78 5.296 28.534-1.674-0.048-3.252-0.048-4.83-0.048-92.884 0-157.712 64.912-157.712 157.88 0 87.23 89.812 163.75 192.176 163.75h218.104l-14.668-15.326-44.004-46.192-2.738-2.784h-28.834c24.386-24.278 38.23-60.668 38.23-102.256zM902.534 660.008v-54.488h-90.852v-90.792h-63.562v90.792h-90.876v63.572h90.876v90.828h63.562v-90.828h90.852v-9.084zM493.532 327.5c-14.99 4.77-30.878 7.16-47.242 7.316h-1.914c-71.904 0-134.928-46.538-134.928-99.698 0-56.664 55.814-101.072 127.062-101.072 93.376 0 140.712 32.97 140.712 97.99 0 6.24-0.778 12.754-2.14 18.936-6.682 25.774-30.89 42.126-64.492 64.864-5.488 3.778-11.19 7.544-17.060 11.668zM423.826 718.798c-0.692 0.012-1.362 0.024-2.056 0.024-18.23 0-34.416-7.424-46.8-21.564-18.338-20.848-26.084-53.52-21.35-89.586 8.19-62.366 52.85-110.516 103.906-112.072 0.812 0 1.59-0.024 2.404-0.024 18.626 0 34.262 6.67 45.33 19.27 15.9 18.11 22.092 47.78 17.404 83.428-8.87 67.314-51.368 119.136-98.838 120.524z" />
<glyph unicode="&#xe612;" glyph-name="delivery-guy" horiz-adv-x="1483" d="M387.413 391.68h228.693v1.707c34.133 3.413 59.733 29.013 59.733 61.44 0 30.72-25.6 56.32-59.733 61.44v0h-413.013c-109.227-1.707-199.68-102.4-203.093-228.693v0-351.573h411.307v351.573c0 37.547-8.533 73.387-23.893 104.107zM1440.427 721.067c0-92.371-74.882-167.253-167.253-167.253s-167.253 74.882-167.253 167.253c0 92.371 74.882 167.253 167.253 167.253s167.253-74.882 167.253-167.253zM1483.093 287.573c-3.413 126.293-93.867 228.693-204.8 228.693s-201.387-102.4-204.8-228.693h-1.707v-351.573h411.307v351.573zM791.893 516.267c-102.4 0-186.027-322.56-186.027-424.96s83.627-136.533 186.027-136.533c102.4 0 186.027 34.133 186.027 136.533s-83.627 424.96-186.027 424.96zM875.52 325.12c0 0-15.36-37.547-83.627-37.547-69.973 0-83.627 37.547-83.627 37.547 10.24 29.013 20.48 56.32 34.133 78.507 15.36 29.013 32.427 73.387 49.493 73.387 18.773 0 37.547-46.080 52.907-78.507 11.947-20.48 22.187-46.080 30.72-73.387zM240.64 758.613l-201.387-46.080c0 0 0 0 0 0 0-92.16 75.093-167.253 167.253-167.253s167.253 75.093 167.253 167.253c0 27.307-6.827 52.907-17.067 75.093l-105.813-25.6c-3.413 0-3.413-1.707-10.24-3.413zM30.72 733.013l203.093 46.080c5.12 1.707 6.827 1.707 10.24 3.413l105.813 25.6 90.453 22.187c11.947 3.413 20.48 15.36 17.067 27.307s-15.36 20.48-27.307 17.067l-73.387-17.067c-32.427 56.32-100.693 88.747-174.080 81.92-6.827 13.653-23.893 23.893-39.253 20.48-17.067-5.12-27.307-20.48-23.893-37.547-81.92-32.427-129.707-116.053-112.64-194.56l23.893 5.12z" />
<glyph unicode="&#xe613;" glyph-name="burger-soda" horiz-adv-x="1172" d="M56.17 113.008h552.982c0 0 6.48-172.788-144.714-172.788s-257.056 0-257.056 0-151.212-10.798-151.212 172.788zM618.88 244.624h-393.494l-73.104-58.31-44.586 58.31h-56.936c-28.036 0-50.762-22.706-50.762-50.74s22.726-50.78 50.762-50.78h568.12c28.034 0 50.76 22.746 50.76 50.78s-22.726 50.74-50.76 50.74zM464.438 452.026c-151.212 0-257.056 0-257.056 0s-151.212 10.818-151.212-172.81h552.982c0-0.020 6.48 172.808-144.714 172.808zM1170.792 727.448h-370.182l-49.712 173.86-238.144 58.692-12.394-50.356 208.958-51.466 37.38-130.726h-107.294l90.804-763.878 0.666 0.182c0.646-15.42 13.26-27.732 28.842-27.732h281.74c13.018 0 23.876 8.618 27.53 20.426l0.646-0.262 101.16 771.264z" />
<glyph unicode="&#xe614;" glyph-name="antenna" horiz-adv-x="1106" d="M350.722 487.14c-67.462 103.096-67.498 205.74 0.070 309.008-18.698 14.102-37.36 28.028-56.784 42.58-95.422-124.004-79.662-297.844 0.864-393.578 18.628 13.998 37.256 27.994 55.85 41.99zM763.274 796.114c67.36-103.752 67.36-206.018 0-308.938 18.524-13.928 37.154-27.96 56.61-42.58 92.968 119.27 82.6 292.626-0.658 393.682-18.836-14.24-37.706-28.478-55.954-42.164zM668.508 640.556c0 61.586-49.836 111.458-111.458 111.458-61.518 0-111.458-49.87-111.458-111.458 0-45.758 27.682-85.020 67.116-102.196l-228.93-602.36 68.084 16.208c1.278 0.312 128.254 30.38 199.692 30.38 72.612 0 243.93-30.482 245.588-30.864l69.846-12.408-274.24 596.174c43.962 14.966 75.758 56.092 75.758 105.064zM740.844 36.226c-58.926 9.158-141.216 20.46-189.288 20.46-44.202 0-103.924-9.47-149.51-18.144l152.758 402.080 186.040-404.394zM946.41 913.378c53.812-79.904 86.782-173.322 86.886-270.992 0.138-105.34-31.796-200.59-94.87-286.37 19.664-14.688 38.432-28.894 57.612-43.374 2.834 3.594 4.804 5.876 6.532 8.26 94.696 134.89 123.9 283.156 89.304 444.002-14.862 68.984-48.28 141.182-87.818 195.096zM159.532 913.378c-53.778-79.94-86.782-173.322-86.886-270.992-0.138-105.34 31.796-200.59 94.868-286.37-19.664-14.688-38.432-28.894-57.612-43.374-2.834 3.594-4.804 5.876-6.532 8.26-94.696 134.89-123.9 283.156-89.306 444.002 14.862 68.984 48.28 141.182 87.82 195.096z" />
<glyph unicode="&#xe615;" glyph-name="account" horiz-adv-x="1072" d="M533.894 960c-124.326 0-205.168-86.704-213.074-168.718-2.212-22.48 2.346-64.928 8.51-111.966-30.454 6.298-35.244-56.384-33.87-78.932 1.44-23.384 27.572-67.908 52.598-60.606 12.33-96.252 52.332-126.874 52.332-126.874l-1.004-102.216-131.798-59.802c-106.606-44.39-214.182-97.928-246.21-147.846-28.746-44.86-20.1-167.010-20.1-167.010h1069.63c0 0 8.644 122.15-20.102 167.010-32.028 49.884-139.604 94.576-246.21 138.968l-131.832 64.224-1.038 104.428c0 0 39.9 31.76 52.264 128.014 25.026-7.304 51.092 37.724 52.532 61.108 1.374 22.548-3.618 85.532-34.038 79.268 6.198 47.038 10.418 89.586 8.208 112.132-7.908 82.014-89.35 168.784-213.678 168.784z" />
<glyph unicode="&#xe616;" glyph-name="order-confirmation" horiz-adv-x="963" d="M539.537 235.399c37.538 37.541 74.917 74.919 112.231 112.233-37.317-37.317-74.698-74.701-112.231-112.233zM758.995 275.67c-17.578-17.583-35.153-35.156-52.728-52.731 85.537 85.537 171.119 171.116 256.347 256.347-28.819 28.811-58.718 58.692-89.623 89.579 30.905-30.887 60.799-60.771 89.618-89.579-67.715-67.718-135.654-135.657-203.614-203.616zM322.905 388.232l-37.307-37.307c-0.484-0.175-0.983-0.316-1.474-0.412 1.569 0.298 3.201 1.034 4.258 2.025 11.745 10.999 23.308 22.191 37.402 35.693-0.967 0-1.914 0-2.879 0zM495.917 388.312c13.080 0 27.424 0 41.701 0v0c-14.035 0-27.903 0-41.701 0zM486.701 350.455c-0.224 0.018-0.448 0.036-0.677 0.077 0.229-0.044 0.453-0.062 0.677-0.077zM449.001 388.312c-0.664-0.934-1.328-1.87-1.991-2.804 11.104-10.587 22.152-21.239 33.38-31.693 1.515-1.415 3.638-2.882 5.617-3.275l-37.325 37.325c0.105 0.152 0.214 0.296 0.319 0.448zM527.036 350.265c-14.478 0.018-27.056 0.051-34.711 0.108 11.593-0.136 23.179-0.126 34.711-0.108zM261.431 272.078l28.97-28.976c-13.078 15.247-20.807 23.979-28.97 28.976zM137.1 609.553c0-13.389 0-25.538 0-37.574 134.103 0 267.182 0 400.809 0 31.042 0 60.143 0 86.016 0 0 12.821 0 24.928 0 37.574-25.893 0-54.99 0-86.016 0-133.948 0-267.022 0-400.809 0zM137.051 461.852c134.324 0 267.676 0 401.362 0 29.83 0 57.835 0 82.931 0 0 12.602 0 24.123 0 36.861-25.15 0-53.155 0-82.931 0-134.651 0-268.031 0-401.362 0 0-12.99 0-25.116 0-36.861zM137.051 681.403c134.324 0 350.607 0 484.293 0 0 12.602 0 24.123 0 36.861-134.648 0-350.967 0-484.293 0 0-12.99 0-25.119 0-36.861zM684.382 10.613h-609.769v874.774h609.769v-448.535c24.921 24.918 49.787 49.787 74.613 74.616v448.533h-758.995v-1024h758.995v283.067c-24.874-24.88-49.739-49.744-74.613-74.618v-133.835zM684.382 380.249c-10.855-10.855-21.743-21.746-32.614-32.616-37.314-37.314-74.693-74.693-112.231-112.233-51.774 51.817-102.861 102.94-153.438 153.556-30.447-30.594-60.272-60.563-89.513-89.945 81.315-81.313 162.747-162.739 242.878-242.868 48.226 48.226 96.562 96.557 144.914 144.909 7.294 7.297 14.591 14.593 21.885 21.887 17.575 17.575 35.15 35.148 52.728 52.731 67.96 67.96 135.899 135.899 203.614 203.616-28.819 28.808-58.713 58.692-89.618 89.579-37.891-37.893-75.91-75.912-113.996-113.998-24.826-24.831-49.692-49.7-74.61-74.618zM322.905 388.232c-64.419 0-124.902 0-185.951 0 0-13.281 0-25.121 0-37.965 49.065 0 97.393-0.026 145.724 0.093 0.461 0.003 0.949 0.054 1.446 0.154 0.491 0.095 0.991 0.237 1.474 0.412l37.307 37.307zM449.001 388.312c-0.105-0.152-0.214-0.296-0.319-0.45l37.327-37.327c0.005 0 0.010 0 0.015-0.003 0.229-0.044 0.453-0.059 0.677-0.077 0.072-0.005 0.147-0.023 0.219-0.026 1.312-0.023 3.172-0.041 5.408-0.057 7.657-0.057 20.233-0.090 34.711-0.108 35.933-0.044 83.26 0.013 94.313 0.013 0 13.724 0 25.561 0 38.032-14.624 0.003-48.969 0.003-83.734 0.003-14.277 0-28.621 0-41.701 0-15.707 0-31.317 0-46.916 0zM261.431 272.078l-6.249 6.249c-2.009 0.147-4.281 0.247-6.9 0.316-5.31 0.136-28.803 0.136-36.025 0.136-14.104 0-28.209 0-42.313 0-10.94 0-21.88 0-32.93 0 0-13.95 0-26.097 0-38.698 51.902 0 103.005 0 155.982 0-0.803 0.934-1.562 1.845-2.3 2.732l-0.293 0.291-28.97 28.973z" />
<glyph unicode="&#xe617;" glyph-name="arrow" horiz-adv-x="480" d="M50.176-58.848l-42.272 34.56 388.992 475.68-388.896 470.272 42.080 34.784 417.536-504.864z" />
<glyph unicode="&#xe618;" glyph-name="food" horiz-adv-x="700" d="M136.96 714.24c8.777 65.829 26.331 141.897 35.109 201.874h19.017v-242.834c0 0 0 0 0 0 0-4.389 7.314-8.777 16.091-8.777s17.554 2.926 17.554 7.314c0 0 0 0 0 0v0 242.834h29.257v-242.834c0 0 0-8.777 17.554-8.777 5.851 0 14.629 4.389 14.629 8.777 0 0 0 0 0 0v0 244.297h21.943c8.777-59.977 26.331-136.046 35.109-201.874 8.777-73.143-14.629-108.251-40.96-124.343-11.703-8.777-33.646-27.794-38.034-52.663v0c-7.314-46.811 30.72-389.12 30.72-525.166 0 0 0 0 0-1.463 0-27.794-24.869-49.737-55.589-49.737s-55.589 21.943-55.589 49.737c0 1.463 0 2.926 0 4.389 0 134.583 38.034 471.040 30.72 520.777 0 0 0 1.463 0 1.463-4.389 23.406-26.331 43.886-38.034 52.663-24.869 16.091-48.274 51.2-39.497 124.343zM562.651 481.646c0 190.171 0 438.857 0 438.857s-36.571 40.96-71.68-29.257c-13.166-27.794-20.48-58.514-27.794-87.771-13.166-51.2-23.406-102.4-29.257-153.6-2.926-24.869-2.926-51.2-4.389-76.069-1.463-26.331-2.926-52.663 2.926-77.531 10.24-40.96 51.2-58.514 64.366-96.549 0-1.463 1.463-2.926 1.463-5.851 1.463-4.389 1.463-10.24 1.463-14.629-16.091-121.417-38.034-280.869-42.423-364.251 0 0 0 0 0-1.463-1.463-27.794 21.943-49.737 52.663-51.2s55.589 20.48 57.051 46.811c0 1.463 0 2.926 0 4.389 5.851 112.64-1.463 352.549-4.389 468.114z" />
<glyph unicode="&#xe619;" glyph-name="vertical-t" horiz-adv-x="1491" d="M1474.97 244.864c-2.304 4.71-4.966 8.422-7.757 11.418-7.987 37.581-26.906 66.074-75.725 99.994-50.97 35.507-61.517 39.066-124.262 58.598-137.242 42.726-229.862 95.155-202.957 220.365 43.52 202.368-216.96 360.422-461.926 317.722-118.426-20.659-222.694-76.621-314.317-135.552-143.411-92.211-286.182-263.27-284.442-423.347-2.867-15.488-4.352-49.894-3.174-140.39 1.203-89.626 4.224-142.234 9.011-156.365 41.6-122.726 293.939-129.792 296.499-129.843l7.142-0.077c59.827 0 121.216 16.205 180.582 31.898 26.752 7.066 52.045 13.747 76.467 18.765 14.797 3.046 29.594 6.195 44.416 9.37 46.259 9.882 94.080 20.122 140.902 26.342 60.442 7.987 126.643 0.051 202.138-24.294 26.906-8.653 53.555-18.355 80.23-28.032 59.699-21.709 121.37-44.109 186.342-55.322 27.213-4.71 63.155-10.112 99.814-10.112 74.547 0 126.234 22.835 153.702 67.84 18.534 30.464 16.614 201.651-2.688 241.024zM1157.683 321.792c28.954 24.115 109.594-9.037 138.854-18.56 25.984-8.448 45.952-20.992 53.606-36.941 8.243-17.126 2.33-38.221-25.6-62.362-5.12-4.403-10.47-7.706-16.026-10.445-17.024-4.634-35.584-6.912-55.296-6.374-6.246 1.075-12.544 2.483-18.867 4.378-76.672 23.014-122.675 91.981-76.672 130.304zM329.83 637.389c57.574 71.296 258.176 214.912 388.557 197.402 31.59-4.25 59.059-17.92 79.36-44.365 43.238-56.346 1.357-141.184 14.95-204.16 7.347-33.843 29.747-73.318 7.066-110.413-21.939-35.891-65.075-13.901-97.075-24.422-29.773-9.83-54.016-34.509-84.070-46.003-31.642-12.083-64.794-19.942-98.099-25.933-67.43-12.083-137.933-15.283-205.619-2.765-137.933 25.6-112.384 127.795-5.069 260.659zM1425.229 35.763c-15.514-25.498-49.613-38.451-101.274-38.451-32 0-64.563 4.915-89.37 9.19-59.597 10.291-116.019 30.797-175.795 52.531-27.392 9.984-54.784 19.891-82.381 28.8-63.053 20.326-120.243 30.234-174.771 30.234-18.458 0-36.71-1.203-54.298-3.558-49.229-6.554-98.227-17.024-145.638-27.162-14.669-3.149-29.312-6.246-43.955-9.267-26.086-5.402-53.402-12.57-79.77-19.584-55.578-14.643-113.050-29.85-164.941-29.85l-5.76 0.077c-88.653 1.997-221.312 33.766-239.437 87.117-2.586 11.11-4.71 64.819-5.734 121.37 20.224-24.474 45.901-47.744 78.362-69.274 60.646-40.192 148.122-46.003 224.794-40.141 112.87 8.576 198.758 51.738 304.538 70.502 27.622 4.864 55.091 6.733 82.509 6.605 85.811-16.666 171.187-32.384 251.085-45.722 53.862-15.795 106.906-32.614 158.925-45.312 93.875-22.886 191.104-62.669 267.008 12.262 0.845-39.859-0.563-79.539-4.096-90.368z" />
<glyph unicode="&#xe61a;" glyph-name="vertical-h" horiz-adv-x="1529" d="M255.896 856.304h155.544v-51.848h-155.544v51.848zM437.365 901.256c0-10.499-8.529-19.028-19.028-19.028h-195.286c-10.499 0-19.002 8.529-19.002 19.028v39.716c0 10.499 8.503 19.028 19.002 19.028h195.26c10.499 0 19.028-8.529 19.028-19.028v-39.716zM1422.479 434.623c0-10.499-8.529-19.028-19.028-19.028h-454.5c-10.499 0-19.028 8.529-19.028 19.028v65.614c0 10.525 8.529 19.028 19.028 19.028h454.475c10.499 0 19.028-8.529 19.028-19.028v-65.614zM152.2 648.911h362.937v-570.329h-362.937v570.329zM47.571 792.194c-26.157 0-47.571-21.387-47.571-47.571v-761.052c0-26.157 21.413-47.571 47.571-47.571h570.822c26.157 0 47.571 21.413 47.571 47.571v761.052c0 26.157-21.413 47.571-47.571 47.571h-570.822zM577.951 59.684c0-26.157-21.413-47.571-47.571-47.571h-390.053c-26.157 0-47.571 21.413-47.571 47.571v608.852c0 26.157 21.413 47.571 47.571 47.571h390.053c26.157 0 47.571-21.413 47.571-47.571v-608.852zM1007.694 208.203h362.937v-103.696h-362.937v103.696zM891.891 364.11c-26.183 0-47.571-21.413-47.571-47.571v-332.969c0-26.157 21.387-47.571 47.571-47.571h589.824c26.157 0 47.571 21.413 47.571 47.571v332.969c0 26.157-21.413 47.571-47.571 47.571h-589.824zM1443.659 78.712c0-26.157-21.387-47.571-47.571-47.571h-409.056c-26.183 0-47.571 21.413-47.571 47.571v142.686c0 26.157 21.387 47.571 47.571 47.571h409.056c26.183 0 47.571-21.413 47.571-47.571v-142.686z" />
<glyph unicode="&#xe61b;" glyph-name="vertical-b" horiz-adv-x="852" d="M786.541 540.784c8.922 0.447 23.678 45.524 25.296 52.807 4.514 20.292 2.151 40.073-7.751 58.385-18.418 34.111-53.956 45.546-91.496 40.521 19.398 2.662 30.513 64.177 29.022 78.635-7.133 69.734-87.45 49.208-130.867 66.306 0 0-188.081 74.185-215.698 122.52 0 0-8.624-60.408-41.415-86.279-18.951-14.969-58.896-16.694-81.19-19.632-43.651-5.728-137.042-8.368-144.856-68.393 0 0-22.443-39.669 27.596-81.105-11.328 9.369-60.621-14.245-69.479-20.569-30.896-22.081-32.387-64.39-20.25-96.777 0 0 15.459-41.223 15.523-41.394-2.896 7.708-51.423-17.673-55.681-21.165-15.586-12.818-26.531-30.917-25.253-51.593 2.96-48.143 48.718-69.032 84.959-87.173 0.681-0.341 1.618-0.17 2.513-0.49l91.815-449.431h501.62l89.303 448.323c94.37 4.45 115.642 161.422 16.289 156.503z" />
<glyph unicode="&#xe61c;" glyph-name="left-arrow-thick" horiz-adv-x="611" d="M0 446.182l98.537-98.205 0.346 0.346 413.741-412.323 97.974 98.32-413.741 412.316 413.741 415.159-98.544 98.205z" />
<glyph unicode="&#xe61d;" glyph-name="menu" horiz-adv-x="1317" d="M0 960h1316.58v-219.42h-1316.58v219.42zM0 569.913h1316.58v-219.42h-1316.58v219.42zM0 179.797h1316.58v-243.797h-1316.58v243.797z" />
<glyph unicode="&#xe61e;" glyph-name="laundry" horiz-adv-x="787" d="M400 208.091c96.549 0 174.080 77.531 174.080 174.080 0 10.24-1.463 19.017-2.926 29.257 0-1.463 0-2.926 0-4.389-11.703-30.72-36.571-70.217-92.16-70.217-99.474 0-136.046 141.897-253.074 46.811 0-96.549 77.531-175.543 174.080-175.543zM32.823 66.194c0-35.109 29.257-64.366 64.366-64.366h21.943c0-1.463 0-2.926 0-5.851 0-20.48 16.091-36.571 36.571-36.571h17.554c20.48 0 36.571 16.091 36.571 36.571 0 1.463 0 2.926 0 5.851h390.583c0-1.463 0-2.926 0-5.851 0-20.48 16.091-36.571 36.571-36.571h17.554c20.48 0 36.571 16.091 36.571 36.571 0 1.463 0 2.926 0 5.851h17.554c35.109 0 64.366 29.257 64.366 64.366v664.137h-740.206v-664.137zM400 611.84c124.343 0 225.28-100.937 225.28-225.28s-100.937-225.28-225.28-225.28c-124.343 0-225.28 100.937-225.28 225.28s100.937 225.28 225.28 225.28zM704.274 935.131h-608.549c-35.109 0-64.366-29.257-64.366-64.366v-99.474h735.817v100.937c0 35.109-27.794 62.903-62.903 62.903zM579.931 816.64c-19.017 0-35.109 16.091-35.109 35.109s16.091 35.109 35.109 35.109c19.017 0 35.109-16.091 35.109-35.109s-16.091-35.109-35.109-35.109zM692.571 816.64c-19.017 0-35.109 16.091-35.109 35.109s16.091 35.109 35.109 35.109c19.017 0 35.109-16.091 35.109-35.109s-16.091-35.109-35.109-35.109z" />
<glyph unicode="&#xe61f;" glyph-name="trophy" horiz-adv-x="1060" d="M586.308 186.829v0 0zM1058.731 873.045l0.102 0.068-200.636 0.905c0.068 2.884 0.137 4.898 0.137 4.898 0.068 6.673-3.209 59.034-3.209 59.034-0.802 13.943-1.502 22.050-1.502 22.050h-647.185c0 0-0.717-6.724-1.502-20.719-1.092-13.005-3.089-60.382-3.089-60.382s0.017-1.877 0.051-4.523h-200.499c0 0-20.139-217.754 93.013-365.841 74.82-98.031 129.007-119.535 185.958-148.941 0.717-0.99 1.297-1.894 1.399-2.031 68.693-104.602 145.015-135.1 192.137-143.36v-27.392c-4.437-174.473-119.398-201.318-119.398-201.318-19.183-12.766-10.803-49.493-10.803-49.493h372.89c0 0 8.329 36.727-10.803 49.493 0 0-114.961 26.829-119.45 201.301l-0.154-0.068v27.392c47.155 8.26 123.563 38.758 192.205 143.394 0.085 0.137 0.717 0.939 1.263 2.065 57.122 29.303 111.206 50.842 186.095 148.804 113.033 148.224 92.979 364.663 92.979 364.663zM96.341 640.307c-33.468 112.947-24.832 166.639-24.832 166.639h132.318c2.901-76.442 10.103-258.014 27.46-325.939-36.113 20.429-109.227 72.602-134.946 159.3zM963.686 640.358v0c-25.702-86.716-98.731-138.94-134.861-159.266 17.374 67.908 24.542 249.395 27.392 325.905h132.369c0.034-0.034 8.653-53.709-24.9-166.639z" />
<glyph unicode="&#xe620;" glyph-name="mobile" horiz-adv-x="640" d="M639.488 856.917c0 62.618-41.387 103.083-102.724 103.083h-433.033c-63.642 0-103.731-40.619-103.731-103.731l0.256-815.872c-0.256-63.795 39.817-103.561 103.407-103.663l433.169-0.734c61.286 1.126 102.724 40.602 103.578 104.141l-0.922 816.777zM191.334 912.009h256.341v-32h-256.341v32zM317.491-1.468c-36.727 0-66.492 29.73-66.492 66.475 0 36.693 29.764 66.492 66.492 66.492s66.509-29.798 66.509-66.492c0.017-36.745-29.815-66.475-66.509-66.475zM573.696 194.97h-509.969v637.457h509.969v-637.457z" />
<glyph unicode="&#xe621;" glyph-name="breadcrumb-arrow" horiz-adv-x="154" d="M0 960h28.13l126.123-512-126.123-512h-28.13l126.093 512z" />
<glyph unicode="&#xe622;" glyph-name="quick-search-arrow" horiz-adv-x="1481" d="M1480.949 600.076l0.087 0.163-663.989 359.761-67.156-123.925 469.244-254.246c-101.883-33.068-278.489-67.568-536.259-40.734-197.315 20.513-410.068 74.214-632.341 159.606l-50.535-131.579c233.831-89.826 458.673-146.422 668.305-168.215 68.912-7.167 132.685-10.181 191.265-10.181 154.272 0 272.298 20.903 351.641 41.774 3.372 0.889 11.319 3.025 22.226 6.212l-236.010-435.58 123.925-67.134 359.783 663.989-0.184 0.087z" />
<glyph unicode="&#xe623;" glyph-name="tree" horiz-adv-x="930" d="M435.797 960c0 0-82.193-69.274-69.274-159.676 0 0 9.114-64.171 63.403-105.677 0 0 75.162 52.838 76.322 132.676 0.017 0 7.049 69.274-70.451 132.676zM620.544 862.532c0 0-43.503-18.193-49.971-57.737 0 0-4.608-28.058 12.646-52.565 0 0 38.4 12.237 49.391 45.517 0 0 12.049 28.075-12.066 64.785zM856.218 619.742c0 0-43.162 10.155-69.905-16.367 0 0-18.995-18.807-19.388-46.985 0 0 35.994-11.878 62.703 7.39 0.017-0.017 24.678 14.711 26.59 55.962zM217.549 834.85c0 0-38.025-87.091 7.612-153.668 0 0 32.341-47.292 91.631-58.931 0 0 38.878 71.287 8.55 135.031-0.017 0-21.555 57.668-107.793 77.568zM91.802 666.692c0 0-4.403-60.604 37.274-91.051 0 0 29.559-21.641 67.789-16.060 0 0 8.277 51.268-23.552 83.251 0 0.017-25.259 30.208-81.51 23.859zM547.789 706.577c0 0-59.904-28.945-65.98-85.111 0 0-4.369-39.868 21.811-73.062 0 0 53.146 20.156 66.082 67.84 0 0 14.831 40.448-21.914 90.334zM244.087 552.448c0 0-4.42-68.745 43.127-102.844 0 0 33.724-24.235 76.988-17.545 0 0 8.892 58.18-27.511 94.14 0 0-28.928 33.963-92.604 26.249zM87.808 318.123c0 0 45.926-51.354 103.578-41.335 0 0 40.926 7.049 66.475 42.598 0 0-35.243 47.121-86.409 46.37-0.017 0-44.51 3.191-83.644-47.633zM702.071 521.574c0 0-50.449 5.649-77.227-28.177 0 0-19.012-23.979-15.582-56.064 0 0 42.53-8.585 70.263 16.964 0 0 26.027 20.105 22.545 67.277zM818.278 257.826c0 0-36.693 60.672-96.939 61.508 0 0-42.735 0.649-75.332-30.464 0 0 26.692-54.391 78.592-63.334 0.017 0.017 44.425-11.708 93.679 32.29zM252.365 213.248c0 0 31.59-13.107 55.245 3.789 0 0 16.794 11.964 20.582 33.365 0 0-25.924 13.5-48.64 2.15-0.017 0-20.617-8.141-27.187-39.305zM0 522.957c0 0 28.604-92.757 108.288-113.886 0 0 56.542-15.053 110.199 15.428 0 0-17.425 81.101-83.371 110.217 0 0.017-55.091 30.293-135.117-11.759zM759.296 766.891c0 0-95.42-9.916-131.209-83.132 0 0-25.446-51.934-6.195-109.807 0 0 81.971 1.297 122.88 59.648-0.017 0 39.919 47.616 14.524 133.291zM929.536 488.738c0 0-85.282 43.93-155.324 2.236 0 0-49.715-29.525-65.28-88.508 0 0 69.325-43.759 135.492-17.34 0.017 0.017 59.494 18.022 85.111 103.612zM493.687 403.985c0 0 24.815 56.030 93.559 108.868 0 0-89.361-119.808-52.446-226.406 0 0 59.938 71.083 145.63 99.635 0 0-114.978-98.253-118.443-162.338 0 0 11.145-180.463-17.425-225.758 0 0 149.094-20.924 170.701-62.020h-479.351c0 0 90.249 56.508 170.513 69.973 0 0 15.343 61.901 31.539 87.501 16.196 25.617-9.404 160.956-171.383 285.85 0 0 93.525-18.295 185.498-113.903 0 0 21.436 65.314-8.363 172.442-29.781 107.127-22.17 177.135-22.17 177.135s22.716-95.078 37.257-126.089 34.884-84.89 34.884-84.89z" />
<glyph unicode="&#xe624;" glyph-name="full-arrow-right" horiz-adv-x="603" d="M0 960l602.863-512-602.863-512v1024z" />
<glyph unicode="&#xe625;" glyph-name="full-arrow-down" horiz-adv-x="1739" d="M1739.327 960l-869.664-1024-869.664 1024h1739.327z" />
<glyph unicode="&#xe626;" glyph-name="delivery-points" d="M511.99 950.887c-277.298 0-502.898-225.6-502.898-502.898s225.6-502.918 502.898-502.918c277.318 0 502.898 225.62 502.898 502.918 0.020 277.318-225.58 502.898-502.898 502.898zM511.99 24.148c-233.727 0-423.862 190.136-423.862 423.862 0 233.707 190.136 423.862 423.862 423.862s423.882-190.156 423.882-423.862c0-233.727-190.156-423.862-423.882-423.862zM388.74 285.353c0.060-43.028 39.669-17.32 42.666-15.188 3.017 2.193 5.954 4.707 8.791 7.523 2.836 2.796 5.532 5.713 7.986 8.771 5.713 6.94 11.205 14.805 16.394 23.596-0.101 2.434 7.745 59.563 7.725 63.224-40.513 42.082-83.662-21.886-83.561-87.927zM563.125 513.87c5.874 18.587 10.782 37.114 14.685 55.439 3.902 18.386 5.874 35.324 5.894 50.833-0.422 4.908-0.966 9.072-1.509 12.512-0.563 3.48-1.468 5.109-2.776 4.989-4.566-0.422-9.273-4.063-13.981-10.903-4.727-6.9-9.273-16.032-13.578-27.338-4.285-11.386-8.992-29.651-14.121-54.856-5.089-25.165-7.664-37.737-7.664-37.737s-1.167-11.587-3.581-34.74c-1.147-11.265-1.911-21.725-2.354-31.582 0.040-8.891 0.382-17.762 0.945-26.593 5.974 13.639 12.23 28.766 18.768 45.482 6.94 17.682 13.377 35.847 19.271 54.494zM511.99 833.29c-212.786 0-385.28-172.494-385.28-385.3 0-212.786 172.494-385.28 385.28-385.28s385.28 172.494 385.28 385.28c0 212.786-172.494 385.3-385.28 385.3zM512.412 213.559c-18.828 0-28.927 13.94-34.036 25.406 0-0.020-0.020-0.020-0.040-0.040-0.040 0.101-0.060 0.221-0.121 0.322-0.764 1.79-1.448 3.48-2.012 5.069 0.080 0.201 0.161 0.382 0.241 0.563-0.986 2.917-2.092 5.572-2.836 8.891-7.161-6.538-14.664-12.713-22.51-18.647-7.845-5.854-15.831-10.983-23.898-15.348-8.107-4.325-16.133-7.805-24.099-10.44-8.006-2.635-15.851-4.285-23.475-3.882-57.572 2.836-51.175 96.416-46.106 117.376 18.245 75.575 71.995 146.323 142.28 106.031 1.348 35.303 12.432 166.58 42.867 219.947 21.383 37.536 49.425 49.043 75.274 49.043 43.792 0.020 46.709-68.193 42.726-96.818-2.354-16.777-5.733-33.795-10.521-51.014-4.868-17.199-10.641-34.499-17.461-52-6.779-17.44-13.96-34.801-21.504-52.12-7.564-17.259-15.147-34.298-22.811-51.094-7.644-16.817-17.199-40.011-24.964-55.279-0.845-1.71-3.54-9.555-4.003-11.024-3.782-13.739-4.969-23.435-4.928-33.392 0.040-1.891 0.020-3.721 0.141-5.834 0.764-14.302 7.604-23.737 12.693-23.174 23.133 2.313 51.396 36.45 64.512 45.341 13.136 8.831 32.085 1.348 25.447-13.739-6.638-15.047-52.885-84.145-120.856-84.145zM688.608 230.014c-0.121-2.012-0.583-4.285-1.348-6.9-0.744-2.635-1.891-5.391-3.46-8.288-1.609-2.937-3.802-5.673-6.699-8.127-2.836-2.454-6.437-4.546-10.822-6.155-4.365-1.629-9.676-2.434-15.932-2.434-5.029 0-9.615 0.603-13.699 1.77-4.084 1.207-7.604 2.977-10.521 5.451-2.937 2.414-5.19 5.512-6.86 9.294-1.67 3.802-2.454 8.388-2.454 13.699 0 4.486 0.684 8.851 2.112 13.156 1.448 4.345 3.641 8.127 6.638 11.486 3.038 3.359 6.88 6.055 11.667 8.006 4.767 1.991 10.42 2.957 16.958 2.957 11.345 0 19.915-2.595 25.768-7.825 5.874-5.19 8.811-12.673 8.811-22.369 0.040-0.483-0.060-1.71-0.161-3.721z" />
<glyph unicode="&#xe627;" glyph-name="dollar" horiz-adv-x="1536" d="M1536-12.781c0-28.020-23.254-51.219-51.237-51.219h-1433.6c-27.946 0-51.163 23.198-51.163 51.219v921.563c0 28.002 23.217 51.219 51.163 51.219h1433.6c27.983 0 51.237-23.217 51.237-51.219v-921.563zM1433.563 652.8c-112.808 0-204.8 92.011-204.8 204.8h-921.563c0-112.808-92.011-204.8-204.837-204.8v-409.6c112.826 0 204.837-92.011 204.837-204.8h921.581c0 112.808 91.992 204.8 204.8 204.8v409.6zM767.981 115.181c-167.992 0-255.981 187.206-255.981 332.819s87.99 332.8 255.981 332.8c167.992 0 255.981-187.206 255.981-332.8s-87.99-332.819-255.981-332.819zM921.581 243.2v76.8h-102.381v358.381h-91.21l-118.393-109.512 61.608-64.065c19.158 16.775 31.167 25.6 44.032 45.596h1.527v-230.381h-102.381v-76.819h307.2z" />
<glyph unicode="&#xe628;" glyph-name="shopping-bag" horiz-adv-x="1083" d="M904.2-23.070c0 0 0 1.545 0 1.545-1.545 287.275-23.168 557.561-30.89 656.409 0 0 0 1.545 0 1.545-3.089 21.623-20.078 37.068-43.246 37.068 0 0 0 0 0 0v0h-64.869l10.811-103.481c0-1.545 0-3.089 0-3.089 0-29.345-23.168-52.513-52.513-52.513s-52.513 23.168-52.513 52.513c0 18.534 10.811 35.524 26.257 44.79 3.089-27.8 3.089-46.335 3.089-46.335 0-12.356 10.811-23.168 23.168-23.168v0c12.356 0 23.168 10.811 23.168 23.168 0 9.267-1.545 234.762-108.114 341.332-37.068 37.068-81.858 54.057-132.827 54.057-52.513 0-97.303-18.534-132.827-55.602-57.147-60.235-81.858-155.994-91.125-230.13h-88.036c0 0-1.545 0-1.545 0-21.623 0-38.612-15.445-43.246-35.524 0-1.545-1.545-3.089-1.545-4.634-9.267-98.848-30.89-367.589-30.89-653.321 0 0 0 0 0-1.545 0 0 0 0 0-1.545 0 0 0 0 0-1.545 0 0 0 0 0 0 1.545-23.168 20.078-40.156 43.246-40.156 0 0 0 0 1.545 0v0h701.199c0 0 0 0 0 0s0 0 0 0v0 0c23.168 0 40.156 18.534 41.701 40.156zM357.449 673.496l-7.722-111.204c-1.545-27.8-24.712-49.423-52.513-49.423-29.345 0-52.513 23.168-52.513 52.513 0 21.623 12.356 38.612 30.89 47.88-1.545-26.257-1.545-44.79-1.545-46.335 0-12.356 12.356-23.168 24.712-23.168s23.168 10.811 23.168 24.712c0 1.545-4.634 211.595 84.947 302.72 27.8 27.8 60.235 41.701 98.848 41.701 78.769 0 134.371-55.602 166.806-168.349 7.722-24.712 12.356-47.88 16.989-71.046h-332.065z" />
<glyph unicode="&#xe629;" glyph-name="listing-beer" horiz-adv-x="865" d="M849.92 552.96c-20.48 48.64-51.2 76.8-92.16 84.48s-81.92-10.24-112.64-33.28v71.68c28.16 15.36 46.080 46.080 46.080 79.36 0 48.64-38.4 87.040-87.040 92.16-20.48 33.28-56.32 53.76-97.28 53.76-23.040 0-43.52-5.12-61.44-17.92-20.48 12.8-40.96 20.48-66.56 20.48-2.56 0-2.56 0-5.12 0-23.040 35.84-64 56.32-110.080 56.32-56.32 0-107.52-35.84-122.88-89.6-7.68 0-12.8 2.56-20.48 2.56-66.56 0-120.32-53.76-120.32-120.32 0-35.84 17.92-69.12 43.52-92.16v-650.24c0-40.96 133.12-74.24 299.52-74.24 163.84 0 299.52 33.28 299.52 74.24v115.2c74.24 61.44 281.6 253.44 207.36 427.52zM30.72 757.76c0 51.2 40.96 94.72 94.72 94.72 7.68 0 17.92 0 25.6-2.56l12.8-2.56 2.56 12.8c10.24 48.64 53.76 81.92 102.4 81.92 38.4 0 71.68-20.48 92.16-51.2l5.12-7.68h7.68c5.12 0 7.68 0 10.24 0 20.48 0 40.96-7.68 58.88-20.48l7.68-5.12 7.68 5.12c15.36 12.8 33.28 17.92 53.76 17.92 33.28 0 61.44-17.92 76.8-46.080l2.56-5.12h7.68c38.4-2.56 69.12-30.72 69.12-69.12s-30.72-69.12-71.68-69.12c-15.36 0-28.16 5.12-40.96 12.8l-5.12 5.12-5.12-2.56c-28.16-10.24-58.88-7.68-84.48 10.24l-7.68 5.12-10.24-10.24c-17.92-15.36-38.4-23.040-61.44-23.040s-43.52 7.68-61.44 23.040l-30.72 30.72 12.8-40.96c2.56-5.12 2.56-10.24 2.56-15.36 0-28.16-7.68-46.080-25.6-53.76l-17.92-7.68 15.36-12.8c5.12-5.12 5.12-23.040 5.12-33.28v-5.12c0-25.6-28.16-28.16-38.4-28.16-7.68 0-38.4 2.56-38.4 28.16 0 15.36 5.12 35.84 7.68 38.4l10.24 12.8-12.8 7.68c-12.8 5.12-17.92 17.92-23.040 35.84l-5.12 12.8-12.8-5.12c-12.8-5.12-25.6-10.24-40.96-10.24-56.32-2.56-97.28 40.96-97.28 92.16zM645.12 207.36v322.56c23.040 20.48 69.12 56.32 102.4 48.64 17.92-2.56 33.28-20.48 46.080-48.64 35.84-81.92-20.48-176.64-74.24-243.2-23.040-30.72-48.64-58.88-74.24-79.36z" />
<glyph unicode="&#xe62a;" glyph-name="listing-dry-cleaning" horiz-adv-x="1544" d="M1492.261-64h-1440.804c-23.156 0-41.166 15.437-48.884 36.020s0 43.739 18.010 56.603l589.186 411.658c23.156 15.437 54.030 10.291 69.467-12.864s10.291-54.030-12.864-69.467l-455.397-321.608h1116.623l-535.156 355.055c-15.437 7.719-54.030 30.874-69.467 82.332-15.437 54.030 2.573 118.352 54.030 190.392 10.291 12.864 18.010 23.156 28.302 33.447 23.156 25.729 36.020 43.739 36.020 64.322 0 54.030-43.739 95.196-95.196 95.196-54.030 0-95.196-43.739-95.196-95.196 0-28.302-23.156-51.457-51.457-51.457s-51.457 23.156-51.457 51.457c2.573 110.633 90.050 198.111 198.111 198.111s195.538-87.477 195.538-195.538c0-59.176-33.447-97.769-61.749-128.643-7.719-10.291-15.437-18.010-23.156-28.302-30.874-43.739-46.312-82.332-38.593-105.487 5.146-12.864 15.437-20.583 15.437-20.583 2.573 0 5.146-2.573 7.719-5.146l676.663-447.678c18.010-12.864 25.729-36.020 20.583-56.603-2.573-20.583-23.156-36.020-46.312-36.020z" />
<glyph unicode="&#xe62b;" glyph-name="listing-laundry" d="M960 960h-896c-35.84 0-64-28.16-64-64v-896c0-35.84 28.16-64 64-64h896c35.84 0 64 28.16 64 64v896c0 35.84-28.16 64-64 64zM512 0c-248.32 0-448 199.68-448 448s199.68 448 448 448c248.32 0 448-199.68 448-448s-199.68-448-448-448zM512 798.72c-194.56 0-350.72-158.72-350.72-350.72 0-194.56 158.72-350.72 350.72-350.72 194.56 0 350.72 158.72 350.72 350.72 0 194.56-156.16 350.72-350.72 350.72zM294.4 291.84c-30.72 43.52-51.2 97.28-51.2 156.16 0 148.48 120.32 268.8 268.8 268.8 58.88 0 110.080-17.92 156.16-48.64l-373.76-376.32z" />
<glyph unicode="&#xe62c;" glyph-name="alcohol" horiz-adv-x="990" d="M807.589 721.554h-172.617l27.794 27.794c21.943-10.24 55.589 0 80.457 21.943 24.869 24.869 32.183 57.051 21.943 80.457l45.349 45.349c7.314 7.314 7.314 17.554 0 24.869s-17.554 7.314-24.869 0l-45.349-45.349c-21.943 10.24-55.589 0-80.457-21.943-24.869-24.869-32.183-57.051-24.869-80.457l-51.2-52.663h-399.36c-4.389 0-7.314-2.926-7.314-7.314 0-2.926 0-4.389 2.926-4.389l282.331-282.331c4.389-4.389 10.24-13.166 10.24-20.48 0 0 0 0 0-2.926v-314.514c0-13.166-7.314-20.48-20.48-21.943l-204.8-59.977c-7.314 0-13.166-4.389-13.166-13.166s4.389-13.166 13.166-13.166h494.446c7.314 0 13.166 4.389 13.166 13.166s-7.314 14.629-14.629 14.629l-201.874 59.977c-10.24 2.926-17.554 13.166-20.48 21.943v314.514c2.926 7.314 4.389 14.629 10.24 20.48l282.331 282.331c2.926 2.926 4.389 2.926 4.389 7.314s-2.926 5.851-7.314 5.851z" />
<glyph unicode="&#xe62d;" glyph-name="listing-tobacco" horiz-adv-x="873" d="M240.64 960c-84.48-7.68-163.84-133.12-115.2-212.48 23.040-35.84 66.56-51.2 87.040-87.040 25.6-40.96 17.92-97.28-7.68-138.24-15.36-25.6-35.84-48.64-58.88-64-7.68-5.12-15.36-12.8-25.6-17.92 20.48 12.8 35.84 40.96 46.080 61.44 23.040 43.52 17.92 89.6-10.24 128-40.96 53.76-120.32 94.72-110.080 174.080 5.12 48.64 43.52 102.4 84.48 125.44 33.28 17.92 74.24 28.16 110.080 30.72zM657.92 629.76c-102.4-66.56-174.080-171.52-217.6-284.16-15.36-38.4-33.28-84.48-84.48-87.040-48.64 0-53.76 99.84-56.32 148.48 0 0 0 0-2.56 0-23.040 0-258.56 0-291.84 0-2.56 0-5.12 0-5.12 0-2.56-53.76-5.12-104.96 0-158.72 2.56-28.16 5.12-53.76 10.24-81.92 7.68-38.4 20.48-79.36 43.52-112.64 2.56-5.12 7.68-10.24 10.24-15.36 7.68-10.24 17.92-20.48 25.6-30.72 30.72-30.72 71.68-53.76 115.2-64 17.92-5.12 33.28-7.68 48.64-7.68 71.68-2.56 140.8 25.6 194.56 71.68 15.36 12.8 28.16 25.6 40.96 40.96 17.92 20.48 33.28 43.52 46.080 66.56 40.96 84.48 69.12 174.080 102.4 263.68 74.24 156.16 143.36 245.76 235.52 284.16l-28.16 51.2c-66.56-20.48-130.56-48.64-186.88-84.48z" />
<glyph unicode="&#xe62e;" glyph-name="listing-wine-liquor" horiz-adv-x="553" d="M312.32 35.84v263.68c135.68 48.64 240.64 373.76 240.64 558.080 0 17.92-2.56 51.2-2.56 51.2 0 28.16-122.88 51.2-273.92 51.2s-273.92-23.040-273.92-51.2c0 0-2.56-33.28-2.56-51.2 0-181.76 81.92-499.2 215.040-555.52v-263.68c-97.28-5.12-151.040-25.6-151.040-51.2 0-28.16 92.16-51.2 204.8-51.2s204.8 23.040 204.8 51.2c-2.56 23.040-69.12 43.52-161.28 48.64zM61.44 721.92c-5.12 38.4-10.24 71.68-10.24 102.4 0 15.36 2.56 40.96 2.56 40.96 0 23.040 99.84 43.52 225.28 43.52 122.88 0 222.72-17.92 222.72-40.96 0 0 2.56-28.16 2.56-40.96 0-33.28-5.12-71.68-12.8-112.64-64-5.12-133.12 7.68-194.56 7.68-76.8 0-156.16 0-235.52 0z" />
<glyph unicode="&#xe62f;" glyph-name="checkmark" d="M864 832l-480-480-224 224-160-160 384-384 640 640z" />
<glyph unicode="&#xe630;" glyph-name="facebook-f" d="M575.872-64h-191.872v512h-128v176.448l128 0.064-0.224 103.936c0 143.936 39.040 231.552 208.608 231.552h141.184v-176.48h-88.224c-66.048 0-69.216-24.672-69.216-70.688l-0.256-88.32h158.688l-18.688-176.448-139.84-0.064-0.128-512z" />
<glyph unicode="&#xe631;" glyph-name="twitter-bird" d="M1024 765.568c-37.664-16.704-78.176-28-120.672-33.088 43.36 26.016 76.672 67.168 92.384 116.224-40.608-24.064-85.568-41.568-133.408-50.976-38.336 40.832-92.928 66.336-153.344 66.336-116.032 0-210.080-94.048-210.080-210.080 0-16.48 1.856-32.512 5.44-47.872-174.592 8.768-329.408 92.416-433.024 219.52-18.080-31.040-28.448-67.104-28.448-105.632 0-72.896 37.088-137.184 93.472-174.88-34.432 1.088-66.816 10.528-95.168 26.272-0.032-0.864-0.032-1.76-0.032-2.656 0-101.792 72.416-186.688 168.512-205.984-17.632-4.8-36.192-7.36-55.36-7.36-13.536 0-26.688 1.312-39.52 3.776 26.72-83.456 104.32-144.192 196.256-145.888-71.904-56.352-162.496-89.92-260.928-89.92-16.96 0-33.664 0.992-50.112 2.944 92.96-59.616 203.392-94.4 322.048-94.4 386.432 0 597.728 320.128 597.728 597.76 0 9.12-0.192 18.176-0.608 27.168 41.056 29.632 76.672 66.624 104.832 108.736z" />
<glyph unicode="&#xe632;" glyph-name="clock" d="M512 960c-281.6 0-512-230.4-512-512s230.4-512 512-512 512 230.4 512 512-230.4 512-512 512zM512 29.867c-230.4 0-418.133 187.733-418.133 418.133s187.733 418.133 418.133 418.133 418.133-187.733 418.133-418.133-187.733-418.133-418.133-418.133zM472.178 479.289l-170.667-167.822 65.422-65.422 196.267 193.422v378.311h-91.022z" />
<glyph unicode="&#xe633;" glyph-name="dollar-sign" horiz-adv-x="576" d="M28.8 179.2l60.8 76.8c3.2 3.2 6.4 6.4 12.8 6.4s9.6 0 12.8-6.4v0c44.8-35.2 89.6-60.8 140.8-70.4 12.8-3.2 28.8-3.2 41.6-3.2 32 0 57.6 9.6 80 25.6s35.2 38.4 35.2 70.4c0 9.6-3.2 19.2-9.6 28.8s-12.8 16-19.2 25.6-19.2 12.8-32 22.4-28.8 12.8-38.4 19.2c-9.6 3.2-25.6 9.6-44.8 19.2-16 6.4-25.6 9.6-35.2 12.8s-19.2 9.6-35.2 16c-16 6.4-25.6 12.8-35.2 19.2s-19.2 12.8-32 19.2c-12.8 9.6-22.4 16-32 25.6-6.4 6.4-16 16-25.6 28.8-9.6 9.6-16 22.4-19.2 32-3.2 12.8-9.6 22.4-12.8 38.4-3.2 12.8-6.4 28.8-6.4 44.8 0 51.2 19.2 99.2 57.6 137.6s86.4 64 147.2 76.8v96c0 6.4 3.2 9.6 6.4 12.8s6.4 6.4 12.8 6.4h76.8c6.4 0 9.6-3.2 12.8-6.4s6.4-6.4 6.4-12.8v-99.2c22.4-3.2 41.6-6.4 64-12.8 19.2-6.4 38.4-12.8 51.2-19.2s25.6-12.8 35.2-22.4c12.8-9.6 19.2-12.8 22.4-16s6.4-6.4 9.6-6.4c6.4-6.4 6.4-12.8 3.2-22.4l-44.8-83.2c-3.2-6.4-6.4-9.6-12.8-9.6s-9.6 0-16 3.2c0 0-3.2 3.2-9.6 6.4-3.2 3.2-12.8 9.6-22.4 16s-22.4 12.8-32 19.2-32 9.6-48 12.8c-16 3.2-32 6.4-48 6.4-35.2 0-67.2-9.6-89.6-25.6s-35.2-38.4-35.2-64c0-9.6 3.2-19.2 6.4-28.8 3.2-6.4 9.6-12.8 16-19.2s16-12.8 22.4-19.2c6.4-6.4 19.2-9.6 32-19.2s25.6-12.8 35.2-16c9.6-3.2 22.4-9.6 38.4-16 19.2-6.4 35.2-12.8 44.8-19.2 9.6-3.2 25.6-9.6 44.8-19.2s32-16 41.6-25.6c9.6-6.4 22.4-16 35.2-28.8s22.4-22.4 28.8-35.2 12.8-25.6 19.2-44.8 6.4-35.2 6.4-54.4c0-57.6-19.2-108.8-57.6-150.4s-86.4-67.2-147.2-76.8v-99.2c0-6.4-3.2-9.6-6.4-12.8 3.2-3.2 0-3.2-6.4-3.2h-76.8c-6.4 0-9.6 3.2-12.8 6.4s-6.4 6.4-6.4 12.8v99.2c-25.6 3.2-48 9.6-73.6 16s-41.6 19.2-57.6 25.6-28.8 19.2-41.6 28.8c-12.8 9.6-22.4 16-25.6 22.4s-9.6 6.4-9.6 9.6c-6.4 6.4-9.6 16-3.2 22.4v0z" />
<glyph unicode="&#xe634;" glyph-name="google-plus-g" d="M559.066 896c0 0-200.956 0-267.94 0-120.12 0-233.17-91.006-233.17-196.422 0-107.726 81.882-194.666 204.088-194.666 8.498 0 16.756 0.17 24.842 0.752-7.93-15.186-13.602-32.288-13.602-50.042 0-29.938 16.104-54.21 36.468-74.024-15.386 0-30.242-0.448-46.452-0.448-148.782 0.002-263.3-94.758-263.3-193.020 0-96.778 125.542-157.314 274.334-157.314 169.624 0 263.306 96.244 263.306 193.028 0 77.6-22.896 124.072-93.686 174.134-24.216 17.144-70.53 58.836-70.53 83.344 0 28.72 8.196 42.868 51.428 76.646 44.312 34.624 75.672 83.302 75.672 139.916 0 67.406-30.020 133.098-86.372 154.772h84.954l59.96 43.344zM465.48 240.542c2.126-8.972 3.284-18.206 3.284-27.628 0-78.2-50.392-139.31-194.974-139.31-102.842 0-177.116 65.104-177.116 143.3 0 76.642 92.126 140.444 194.964 139.332 24-0.254 46.368-4.116 66.67-10.69 55.826-38.826 95.876-60.762 107.172-105.004zM300.818 532.224c-69.038 2.064-134.636 77.226-146.552 167.86-11.916 90.666 34.37 160.042 103.388 157.99 69.010-2.074 134.638-74.814 146.558-165.458 11.906-90.66-34.39-162.458-103.394-160.392zM832 704v192h-64v-192h-192v-64h192v-192h64v192h192v64z" />
</font>
</defs>
</svg>
