<?xml version="1.0" standalone="no"?>
<!DOCTYPE svg PUBLIC "-//W3C//DTD SVG 1.1//EN" "http://www.w3.org/Graphics/SVG/1.1/DTD/svg11.dtd" >
<svg xmlns="http://www.w3.org/2000/svg" xmlns:xlink="http://www.w3.org/1999/xlink" version="1.1">
<metadata></metadata>
<defs>
<font id="gloria_hallelujahregular" horiz-adv-x="1028" >
<font-face units-per-em="2048" ascent="1638" descent="-410" />
<missing-glyph horiz-adv-x="922" />
<glyph horiz-adv-x="0" />
<glyph unicode="&#xd;" horiz-adv-x="922" />
<glyph unicode=" "  horiz-adv-x="922" />
<glyph unicode="&#x09;" horiz-adv-x="922" />
<glyph unicode="&#xa0;" horiz-adv-x="922" />
<glyph unicode="!" horiz-adv-x="300" d="M44 1502q54 50 84 22t45 -106t17 -187t3 -223t4 -216t17 -162q0 -30 -4 -52t-14 -36t-32 -21t-58 -7q-6 0 -12 6t-12 35t-12 90t-11 171t-10 276t-5 410zM75 83q-3 21 10 42t32 36t41 20t36 -7q26 0 51 -16t32 -39t-13 -51t-86 -52q-54 8 -77 27t-26 40z" />
<glyph unicode="&#x22;" horiz-adv-x="728" d="M37 1287q-1 57 1 104t2 67q0 14 1 51t1 78t1 77t1 52q2 4 19 21l21 21q4 0 10 2q4 0 7 1t5 1t6 -1t6 -1q6 -2 12 -2q2 -2 8 -7t13 -12t13 -14t6 -9q-8 -98 13 -184t49 -163t52 -145t24 -132q0 -22 -6 -49t-21 -50t-36 -38t-55 -15q-46 0 -77 32t-47 83t-22 113t-7 119z M386 1592q0 22 8 45t21 41t33 29t44 11q26 0 48 -44t40 -111t29 -145t20 -146t13 -114t4 -48q0 -86 -94 -86q-34 0 -60 37t-45 94t-31 126t-19 132t-9 112t-2 67z" />
<glyph unicode="#" horiz-adv-x="1406" d="M60 810q14 40 63 67t132 30t195 -37q8 10 13 42t11 74t13 88t12 84t9 65t10 27q12 8 38 12t50 6q32 4 66 4l26 -328h150q0 4 2 34t7 73t14 93t23 91t33 69t47 28q8 0 24 -1t30 -5t25 -13t11 -27v-300q22 -8 59 -16t82 -15t91 -15t84 -18t62 -23t24 -29q-14 -42 -57 -61 t-96 -30t-106 -20t-86 -27t-38 -52t41 -96q22 0 56 4t70 8t72 4t64 -8t46 -28t18 -56q0 -32 -39 -52t-91 -34t-101 -22t-71 -14q6 -36 14 -87t5 -99t-25 -84t-78 -36q-42 14 -61 43t-30 64t-19 68t-28 55t-60 25t-112 -21v-83t-9 -90t-35 -72t-76 -29q-18 0 -41 30t-48 73 t-51 85t-50 68q-120 12 -185 27t-89 31t-14 33t36 33q66 34 230 70q0 20 -9 81t-31 163q-126 -38 -201 -31t-105 37t-16 70zM676 602q0 -18 10 -28t24 -15t29 -6t25 -1q16 0 38 3t43 9t36 19t15 35q0 44 -21 80t-65 36q-24 0 -48 -11t-43 -30t-31 -43t-12 -48z" />
<glyph unicode="$" horiz-adv-x="1242" d="M66 176q16 20 53 31t89 15t101 3t88 -10t53 -19q20 128 19 215t-16 146t-43 96t-62 62t-70 46t-69 48t-59 67t-40 104q0 54 24 95t61 71t80 52t80 42t61 39t24 43v344q0 16 19 25t44 17t46 10t29 2q0 -98 9 -201t47 -197q18 0 67 -6t104 -13t104 -13t69 -8q4 -2 17 -8 t26 -14t25 -14t16 -10q12 -36 16 -69t-30 -49t-121 -6t-251 62q-22 0 -32 -26t-14 -58t-3 -59t1 -29q0 -6 1 -22l2 -32t2 -31t1 -23q22 -4 75 -11t119 -21t138 -36t133 -53t99 -74t38 -99q0 -110 -50 -195t-127 -151t-168 -120t-173 -98v-64q0 -44 7 -87t17 -86t17 -86 t7 -87q0 -52 -18 -79t-74 -27q-24 0 -36 3t-20 12t-13 27t-15 48q-6 20 -19 68t-27 103t-25 103t-13 68l-386 84q-36 8 -42 37t-6 55q-22 28 -6 48zM286 984q0 -60 37 -82t95 -22v194q-22 0 -45 -4t-42 -15t-32 -28t-13 -43zM624 690q0 -114 13 -221t39 -217h20q48 0 104 25 t106 66t83 90t33 97q0 70 -43 103t-104 46t-131 12t-120 -1z" />
<glyph unicode="%" horiz-adv-x="1542" d="M40 1024q0 64 14 133t47 126t87 93t132 36q40 0 76 -19t63 -51t43 -71t16 -75q0 -54 -36 -108t-88 -97t-112 -69t-112 -26q-54 0 -92 36t-38 92zM156 1193q8 -39 50 -105q62 -34 97 -33t51 27t15 72t-13 102q-72 12 -120 12t-68 -18t-12 -57zM494 172q18 48 40 158 t51 251t65 294t80 285t96 227t116 117q90 0 90 -92q-4 -36 -19 -117t-38 -185t-53 -225t-64 -244t-70 -238t-72 -206t-70 -150t-63 -70t-52 34t-37 161zM896 366q0 70 40 116t98 74t123 38t115 10q104 0 147 -43t43 -145q0 -154 -86 -245t-244 -91q-44 0 -87 28t-76 71 t-53 93t-20 94zM1094 379q8 -39 50 -103q62 -34 97 -34t51 27t15 72t-13 101q-72 12 -120 12t-68 -18t-12 -57z" />
<glyph unicode="&#x26;" horiz-adv-x="1502" d="M0 1178q0 96 61 179t150 145t189 98t180 36q118 0 159 -54t41 -170q0 -80 -29 -154t-63 -146t-63 -145t-29 -151q0 -50 39 -89t92 -67t108 -43t87 -15h22q0 6 16 55t45 104t67 98t86 41q14 -20 23 -34t14 -28t7 -29t2 -37q0 -30 -8 -59t-17 -58t-17 -58t-8 -61 q0 -4 1 -13t1 -19t1 -20t1 -12q56 -18 106 -33t86 -37t57 -59t21 -99q-38 -38 -83 -36t-98 24t-115 54t-130 56q-38 0 -77 -25t-82 -63t-89 -83t-95 -83t-101 -63t-108 -25q-64 0 -101 32t-58 81t-27 105t-6 102q0 48 7 93t16 90t16 90t7 93q0 6 -1 17t-1 26t-1 26t-1 17 q-42 32 -95 75t-98 95t-76 111t-31 125zM168 1142q0 -6 2 -12v-14l216 -216q66 42 112 109t75 145t43 161t14 155q-68 0 -148 -20t-151 -58t-117 -98t-46 -140v-12zM424 316q0 -16 2 -35t8 -33t20 -24t38 -10q42 0 89 22t92 54t82 70t61 70l-8 8l-13 13t-14 13t-9 8 q-14 8 -46 28t-66 41t-64 38t-40 23h-8q-4 0 -7 1t-5 1q-42 0 -64 -33t-33 -80t-13 -95t-2 -80z" />
<glyph unicode="'" horiz-adv-x="300" d="M44 1328q0 6 4 18t11 26t14 26t11 16q4 0 10 2q4 0 7 1t5 1q38 0 67 -26t49 -64t29 -79t9 -71q0 -20 -6 -55t-19 -65t-34 -53t-51 -23q-34 0 -53 45t-32 104t-17 116t-4 81z" />
<glyph unicode="(" horiz-adv-x="686" d="M40 804q0 36 8 98t25 135t44 149t63 137t82 100t104 39q2 0 4 -1t6 -1q4 -2 10 -2q6 -2 21 -8t28 -13t24 -14t13 -11q0 -2 2 -6q0 -4 1 -7t1 -5q0 -70 -42 -138t-91 -140t-91 -152t-42 -172q0 -124 34 -219t91 -176t136 -155t171 -156q0 -4 2 -11t2 -11q0 -38 -28 -53 t-62 -15q-90 0 -163 41t-130 107t-100 151t-70 175t-40 177t-13 157z" />
<glyph unicode=")" horiz-adv-x="728" d="M0 1328q6 20 17 30t27 14t32 4h30q128 0 228 -66t169 -169t106 -224t37 -231q0 -44 -8 -111t-25 -144t-43 -154t-62 -139t-83 -102t-105 -40q-36 0 -52 29t-16 61q0 82 35 154t76 145t77 152t36 171q0 82 -24 146t-63 114t-89 92t-103 83t-104 85t-93 100z" />
<glyph unicode="*" horiz-adv-x="1070" d="M0 664q0 56 31 92t76 57t98 30t95 13q-8 16 -27 52t-40 78t-39 79t-24 51q0 4 -1 18t-1 24q0 8 1 23t5 28t13 23t27 10q6 0 17 -5t26 -12t27 -13t16 -12q12 -12 37 -48t52 -77t50 -78t33 -53q38 46 75 86t79 71t91 48t111 17q0 -50 -23 -86t-50 -69t-50 -68t-23 -87 q0 -6 2 -22t2 -18q32 -2 83 -2t101 -11t85 -37t35 -80q0 -48 -21 -66t-53 -20t-70 4t-72 7t-58 -9t-30 -46q4 -8 14 -35t26 -63t33 -81t30 -85t21 -72t6 -50q0 -2 -10 -14t-25 -26t-29 -26t-24 -18q-6 -2 -10 -4q-6 -2 -10 -2q-48 0 -76 41t-47 98t-35 116t-36 95 q-42 -68 -60 -138t-42 -128t-70 -94t-144 -36q0 70 15 136t38 130t47 128t44 128q0 6 2 10q4 12 4 18q0 2 -4 10q-2 4 -2 8q-6 4 -17 11t-25 14t-26 11t-16 4q-6 0 -25 -6t-41 -13t-40 -14t-22 -7t-22 -3t-28 -3q-28 0 -54 15t-26 53z" />
<glyph unicode="+" d="M-4 620q0 8 2 14q0 4 2 8q8 12 24 28t20 16h428q12 104 33 215t51 215h24h22l22 -11t28 -13t24 -13t10 -9v-400q34 0 86 11t101 12t83 -18t34 -79q0 -34 -23 -52t-57 -27t-72 -12t-73 -10t-57 -22t-22 -43q0 -48 21 -90t46 -82t45 -82t20 -90q0 -90 -90 -90q-42 0 -76 25 t-61 67t-48 94t-36 105t-23 102t-12 83l-428 84q-8 0 -24 18t-20 28q-2 2 -2 8q-2 4 -2 10z" />
<glyph unicode="," horiz-adv-x="464" d="M58 -356q0 42 9 108t26 140t41 147t52 132t60 96t68 37q22 0 37 -10t21 -25t8 -34t2 -37q0 -42 -9 -99t-27 -119t-45 -123t-63 -108t-81 -76t-99 -29z" />
<glyph unicode="-" d="M152 650q0 6 2 23t2 19q32 0 87 5t121 10t137 11t135 8t118 2t84 -6q36 0 51 -8t15 -54q-60 -40 -150 -59t-184 -27t-183 -8t-145 -2q-54 -4 -72 22t-18 64z" />
<glyph unicode="." horiz-adv-x="454" d="M172 60q-2 30 22 59t84 43q90 0 90 -94q-22 -58 -56 -77t-63 -14t-52 29t-25 54z" />
<glyph unicode="/" horiz-adv-x="800" d="M82 158q4 14 13 50t18 77t17 76t12 49q14 56 42 155t69 212t94 228t118 202t141 133t164 22q-28 -112 -71 -211t-92 -194t-100 -188t-99 -189t-87 -200t-61 -222q-10 -58 -38 -67t-64 1q-26 6 -48 18t-28 48z" />
<glyph unicode="0" horiz-adv-x="1200" d="M40 754q0 82 14 174t44 180t76 168t108 141t141 96t177 35q136 0 241 -44t176 -124t107 -191t36 -243q0 -92 -18 -200t-57 -213t-97 -201t-134 -170t-173 -118t-209 -44q-100 0 -171 36t-119 96t-76 139t-43 162t-19 167t-4 154zM210 664q0 -80 8 -167t40 -160t92 -120 t164 -47q86 0 154 41t120 107t91 149t63 169t36 166t12 142q0 90 -14 170t-50 138t-100 91t-170 33q-88 0 -155 -34t-117 -90t-83 -129t-53 -153t-29 -159t-9 -147z" />
<glyph unicode="1" horiz-adv-x="472" d="M40 1286v77t10 102t32 89t68 38q26 0 43 -45t28 -112t16 -148t8 -153t5 -125t6 -65q6 -32 23 -96t37 -145t44 -169t45 -168t39 -144t28 -92q0 -4 2 -12t2 -12q0 -22 -15 -35t-36 -20t-43 -9t-40 -2q-8 0 -23 2t-19 2q-42 140 -89 295t-85 315t-62 321t-24 311z" />
<glyph unicode="2" horiz-adv-x="1328" d="M26 986q0 106 36 207t103 180t160 127t205 48q48 0 78 -4t52 -18t36 -41t32 -73v-57t1 -89t2 -91t1 -59q0 -106 -12 -208t-29 -202t-29 -201t-12 -205h36l472 214q2 0 9 1t17 1t19 1t13 1q18 0 38 -2t37 -8t29 -20t12 -38q0 -42 -26 -66t-61 -38t-72 -24t-61 -22 q-18 -10 -57 -30t-91 -45t-108 -53t-106 -54t-90 -46t-60 -28q-4 0 -13 -1t-20 -1t-20 -1t-13 -1q-40 0 -63 9t-33 28t-12 47t-2 70q0 110 21 217t47 215t47 219t21 225q0 16 -1 53t-1 77t-1 77t-1 51q-4 8 -20 24t-22 20h-22q-66 0 -110 -29t-75 -71t-57 -93t-57 -93 t-70 -71t-97 -29z" />
<glyph unicode="3" horiz-adv-x="1158" d="M0 1286v42q0 70 40 133t100 111t129 76t129 28q92 0 153 -32t100 -86t58 -124t25 -146t2 -155t-8 -147q82 -14 153 -40t124 -69t84 -106t31 -153q0 -50 -18 -114t-51 -133t-76 -135t-93 -119t-106 -85t-112 -32q-38 0 -53 27t-15 59q0 6 3 23t3 21q50 34 110 89t112 120 t87 137t35 144q0 4 -1 8t-1 8v6q-8 8 -26 27t-38 39t-39 38t-25 26q-4 0 -10 2q-4 0 -7 1t-7 1q-38 0 -88 -31t-98 -70t-85 -74t-49 -45q-4 -2 -10 -2q-4 -2 -12 -2t-10 2q-6 0 -10 2q-8 4 -25 21t-19 25v18v22q16 50 44 126t56 159t49 166t21 149q0 48 -4 95t-20 85t-46 60 t-82 22q-70 0 -123 -39t-90 -98t-53 -126t-8 -125h-86q-2 0 -8 20t-13 47t-13 56t-10 47z" />
<glyph unicode="4" horiz-adv-x="1242" d="M-12 536q0 78 28 186t79 225t119 232t148 207t169 149t177 57q20 0 53 -1t65 -7t56 -20t24 -42q0 -2 -4 -12q-2 -6 -2 -8q-4 -8 -15 -21t-24 -27t-27 -26t-18 -16q0 -14 -1 -50t-1 -76t-1 -77t-1 -51q0 -64 -1 -123t3 -117t13 -115t29 -117q6 0 18 -1t26 -1t26 -1t18 -1 q26 0 52 1t49 9t41 26t30 54q62 -26 75 -61t13 -85q0 -60 -26 -91t-69 -45t-98 -15t-111 -3q8 -20 20 -69t26 -104t25 -103t15 -66q0 -4 2 -22t2 -28q0 -54 -30 -69t-82 -15q-6 0 -31 2t-31 2q-4 24 -16 79t-25 116t-27 115t-20 76q-6 16 -18 42t-29 50t-38 41t-41 17h-614z M206 728h440q0 62 -6 153t-13 180t-16 163t-9 104q-64 -44 -133 -114t-128 -152t-97 -169t-38 -165z" />
<glyph unicode="5" horiz-adv-x="986" d="M40 1286q0 14 1 44t1 65t1 65t1 42q48 2 141 16t198 29t205 27t162 12q50 0 83 -19t33 -65q0 -48 -20 -63t-74 -27q-20 -2 -64 -10t-99 -17t-115 -18t-115 -17t-99 -14t-66 -8q0 -6 -1 -17t-1 -26t-1 -26t-1 -17q0 -16 3 -51t9 -78t15 -89t21 -84t26 -62t32 -24 q40 0 75 14t70 32t73 32t84 14q84 0 140 -21t88 -64t46 -106t14 -147q0 -94 -32 -199t-91 -194t-145 -148t-196 -59q0 64 22 116t54 98t70 90t71 91t54 101t21 122q0 24 -6 50t-20 48t-35 37t-53 15l-3 -1t-7 -1q-6 -2 -8 -2q-10 -6 -37 -18t-62 -30t-75 -38t-75 -37 t-61 -31t-34 -16q-4 -2 -10 -4t-12 -2q-46 0 -78 43t-54 110t-34 148t-19 157t-9 139t-2 93z" />
<glyph unicode="6" horiz-adv-x="944" d="M40 366q0 38 2 135t12 219t29 253t51 240t77 179t109 70q2 0 6 -1t6 -1q6 -2 10 -2q8 -4 24 -20t20 -26v-18v-22q-4 -14 -14 -57t-23 -100t-28 -122t-29 -122t-23 -100t-13 -55q-2 -6 0 -17t3 -23t3 -22t2 -16q42 0 82 13t82 28t84 27t88 12q134 0 197 -76t63 -206 q0 -102 -47 -200t-124 -175t-175 -124t-200 -47q-50 0 -88 6t-69 25t-59 54t-54 95q0 12 -1 40t-1 58t-1 57t-1 41zM252 386q0 -22 4 -59t16 -72t34 -61t58 -26q48 0 105 36t105 89t82 113t34 108q0 38 -14 56t-35 26t-50 8h-61q-54 0 -103 -13t-89 -40t-63 -69t-23 -96z " />
<glyph unicode="7" horiz-adv-x="1200" d="M44 1174v112q0 14 35 22t88 13t116 7t118 3t92 1h43q30 0 84 2t118 0t132 -10t124 -28t91 -53t35 -85q0 -130 -19 -223t-46 -168t-56 -143t-49 -144t-24 -170t18 -224q-26 -52 -56 -71t-72 -19q-10 0 -25 2t-19 2q-2 10 -5 37t-3 78t6 130t21 194t41 271t68 360v22v24 q-10 6 -35 12t-52 13t-51 12t-34 5q-26 0 -79 1t-121 3t-142 4t-142 4t-122 3t-78 1z" />
<glyph unicode="8" horiz-adv-x="1158" d="M0 1136q0 102 56 170t144 109t198 60t218 25t202 5t152 -1q70 0 110 -39t40 -109q0 -54 -26 -118t-68 -130t-91 -130t-98 -121t-89 -101t-62 -70q34 -52 66 -103t56 -103t38 -107t14 -115q0 -136 -83 -199t-215 -63q-68 0 -131 25t-112 70t-79 106t-30 129q0 6 1 15t1 18 t1 17t1 10l23 46t40 82t40 82t25 46v22v22q-18 14 -50 43t-70 66t-78 80t-71 88t-52 89t-21 84zM210 1158q0 -50 30 -104t74 -98t98 -73t102 -29q8 0 23 1t19 1q14 12 53 45t81 76t78 91t48 90q-34 50 -63 77t-60 39t-65 14t-80 2h-94t-112 -11t-93 -39t-39 -82zM424 320 q0 -62 42 -106t114 -44q44 0 77 19t33 63t-17 80t-42 69t-55 61t-62 52q-48 -32 -69 -85t-21 -109z" />
<glyph unicode="9" horiz-adv-x="986" d="M40 1222q0 100 25 190t78 159t136 108t197 39q108 0 186 -42t129 -112t82 -161t46 -186t20 -191t5 -172v-38q-4 -26 -14 -80t-23 -121t-27 -142t-27 -143t-23 -122t-14 -78q-32 -58 -80 -83t-110 -25q0 110 17 217t37 213t37 212t17 214q0 8 -1 29t-3 46t-2 46v29 q-54 -60 -94 -95t-79 -52t-81 -22t-102 -5q-58 0 -103 9t-82 29t-72 54t-71 82q0 10 -1 38t-1 60t-1 59t-1 37zM210 1242q0 -40 5 -79t20 -68t46 -48t85 -19q50 0 107 43t105 102t80 121t32 100q0 28 -25 56t-59 49t-71 35t-59 14q-76 0 -128 -23t-82 -63t-43 -96t-13 -124z " />
<glyph unicode=":" horiz-adv-x="556" d="M-4 750q0 32 24 60t59 49t72 34t63 13q58 0 74 -35t16 -87q0 -38 -16 -65t-43 -45t-63 -27t-76 -9q-8 0 -10 2q-6 0 -10 2q-6 2 -19 14t-27 25t-25 27t-15 20q-2 4 -2 10q-2 6 -2 12zM168 106q0 64 38 99t94 49t117 16t107 2q0 -56 -16 -106t-47 -87t-77 -60t-106 -23 q-62 0 -86 24t-24 86z" />
<glyph unicode=";" horiz-adv-x="386" d="M16 242q0 52 11 94t33 73t59 49t91 18h43t45 -6t35 -20t15 -44q0 -42 -39 -73t-92 -52t-110 -30t-91 -9zM130 -772q68 152 88 314t-4 328l86 86q40 -12 59 -51t26 -87t6 -100t-1 -88q0 -8 -2 -32t-2 -28q-4 -20 -15 -68t-25 -103t-27 -103t-19 -68q-4 -4 -16 -10t-27 -13 t-26 -13t-17 -8h-20h-24q-6 4 -21 21t-19 23z" />
<glyph unicode="&#x3c;" horiz-adv-x="856" d="M40 514q0 66 40 132t106 129t150 118t171 97t170 66t145 24q0 -58 -29 -106t-77 -90t-107 -81t-116 -77t-109 -80t-84 -90q-2 -6 -4 -8v-12v-12q2 -6 4 -10q4 -2 19 -20t23 -22q10 -8 47 -30t86 -54t104 -66t103 -66t84 -55t50 -31q4 -2 21 -19t19 -21q0 -6 2 -12 q0 -2 1 -6t1 -6t-1 -5t-1 -5q-2 -6 -2 -10q-4 -8 -18 -24t-27 -29t-25 -23t-16 -10q-32 0 -99 25t-148 67t-166 96t-156 112t-116 114t-45 100z" />
<glyph unicode="=" horiz-adv-x="1070" d="M52 1046l42 42q166 8 316 16q66 2 134 6t135 8t125 6t104 6h26q40 0 52 -28t12 -56q0 -48 -17 -76t-73 -54q-16 0 -55 -1t-83 -1t-84 -1t-56 -1q-52 0 -138 -4t-174 4t-163 37t-103 97zM74 496q0 84 56 132t141 74t187 32t194 5t160 -6t88 -3q58 4 74 -22t16 -62 q0 -46 -27 -72t-68 -38t-86 -16t-81 -6q-24 -2 -75 -2t-116 -3t-136 -5t-136 -4t-116 -3t-75 -1z" />
<glyph unicode="&#x3e;" horiz-adv-x="900" d="M32 1170q54 0 141 -17t183 -46t194 -69t176 -87t128 -99t50 -102q0 -4 -2 -11t-2 -11q-18 -22 -54 -65t-82 -99t-97 -117t-98 -115t-85 -98t-56 -64q-30 -34 -48 -58t-33 -40t-34 -24t-53 -8q-8 0 -23 1t-30 5t-26 13t-11 27q0 32 28 84t72 111t95 122t99 120t84 100 t52 63q0 4 2 11t2 11l-2 10q-2 4 -2 10q-4 8 -20 24t-24 20q-12 8 -48 30t-84 54t-103 66t-103 65t-84 54t-50 29q-30 20 -41 42t-11 58z" />
<glyph unicode="?" horiz-adv-x="728" d="M-12 1316q0 78 21 144t63 114t105 75t143 27q56 0 115 -26t105 -69t76 -97t30 -112q0 -72 -19 -131t-45 -110t-54 -99t-48 -100t-24 -111t16 -135q-4 -6 -16 -13t-25 -13l-26 -12t-19 -6q-44 0 -70 23t-41 56t-19 71t-4 68q0 72 29 135t62 123t62 123t29 135q0 26 -15 49 t-37 40t-50 27t-54 10q-38 0 -71 -20t-61 -47t-53 -57t-49 -50q-4 -4 -27 -8t-29 -4zM386 86q0 24 18 54t43 56t54 44t55 18q4 0 21 -17t25 -27q4 -6 11 -19t14 -27t11 -25t4 -13q0 -38 -10 -57t-26 -26t-37 -7h-45q-8 0 -30 -1t-47 2t-43 12t-18 33z" />
<glyph unicode="@" horiz-adv-x="1714" d="M40 698q0 190 71 360t193 298t289 202t357 74q126 0 254 -55t232 -147t170 -213t66 -253q0 -110 -38 -227t-105 -224t-157 -201t-196 -164t-220 -111t-228 -41q-142 0 -267 57t-218 153t-148 223t-55 269zM210 698q0 -116 43 -214t118 -169t175 -109t212 -38q68 0 130 20 t117 55t104 83t91 104q-24 26 -44 43t-38 27t-39 14t-47 4q-38 0 -74 -8t-71 -18t-72 -18t-77 -8q-42 0 -88 16t-86 45t-66 70t-26 89q0 78 40 148t102 122t139 83t147 31q80 0 125 -28t70 -72t39 -94t36 -93t59 -72t107 -29q56 0 90 33t51 83t22 107t5 107q0 92 -56 173 t-141 143t-184 98t-181 36q-148 0 -281 -64t-233 -170t-159 -244t-59 -286zM626 705q10 -37 42 -61t78 -27t90 24t79 90t47 175l-12 6q-132 -22 -205 -57t-101 -74t-18 -76z" />
<glyph unicode="A" horiz-adv-x="1372" d="M37 55q-3 35 -3 79q0 57 5 132q9 132 34 291t61 333t87 336t114 301t137 229q12 36 35 42t53 6q46 0 103 -61t117 -163t121 -234t118 -273t107 -281t87 -257t57 -203t20 -118t-15 -61t-53 -29q-24 0 -41 15t-29 37t-22 44t-18 38q-8 22 -33 84t-52 130t-51 128t-34 86 q-140 24 -281 45t-297 41h-22q-72 -310 -127 -490t-92 -256q-32 -65 -52 -65q-3 0 -6 2q-21 13 -28 92zM424 1052q0 -74 48 -109t116 -45q57 -8 118 -8h25q75 2 129 2q0 80 -26 173t-66 185t-85 179t-83 157q-22 -22 -47 -81t-50 -132t-45 -143t-30 -114q0 -6 -2 -31t-2 -33 z" />
<glyph unicode="B" horiz-adv-x="1200" d="M68 1492q24 122 88 193t147 97q55 17 116 17q30 0 62 -4q95 -13 180 -59t149 -119t90 -166q13 -46 13 -96.5t-13 -104.5q-26 -108 -118 -222q72 -26 134 -52t105 -64t67 -92t24 -134q0 -66 -24 -140t-67 -146t-100 -137t-123 -115t-135 -79t-135 -29q-44 0 -86 56 t-82 148t-78 212t-70 249t-58 256t-45 235t-30 187t-11 109zM294 1108q2 -56 12 -112t36 -96q98 18 171 68t118 117t65 143q16 61 16 119q0 15 -1 29q-5 72 -34 132t-81 93t-126 33t-170 -48q0 -16 -1 -56t-2 -84t-1 -84v-56q0 -36 -2 -89q-1 -26 -1 -53.5t1 -55.5zM424 626 q0 -34 16 -90t41 -112t55 -103t64 -63q13 -7 28 -7q18 0 38 10q38 19 77 60t75 94t65 105t46 97t17 69q0 52 -14 85t-41 53t-64 28t-81 8q-50 0 -106 -16t-103 -46t-80 -74t-33 -98z" />
<glyph unicode="C" horiz-adv-x="1286" d="M40 686q0 68 19 148t53 161t82 158t108 136t130 94t148 35q64 0 120 -17t96 -51t63 -85t23 -121q-44 0 -71 23t-50 51t-50 50t-69 22q-62 0 -119 -32t-106 -86t-86 -122t-64 -137t-42 -135t-15 -114q0 -104 31 -195t89 -158t144 -105t196 -38q70 0 133 21t122 46t117 47 t116 22q8 0 23 -1t28 -5t23 -13t10 -27q0 -72 -55 -122t-131 -81t-158 -45t-134 -14q-152 0 -284 49t-230 139t-154 217t-56 285z" />
<glyph unicode="D" d="M44 1356q0 84 49 138t122 85t157 42t152 11q130 0 219 -51t144 -135t79 -194t24 -224q0 -76 -16 -179t-48 -212t-79 -216t-109 -192t-139 -137t-169 -52q-18 0 -43 49t-56 131t-64 189t-65 222t-60 231t-51 214t-35 172t-12 108zM210 1242q0 -64 9 -146t28 -170t48 -177 t67 -167t86 -141t108 -99q68 96 118 172t82 152t47 162t15 200q0 82 -10 160t-43 139t-93 98t-158 37q-80 0 -155 -25t-145 -65q0 -6 -1 -24t-1 -39t-1 -40t-1 -27z" />
<glyph unicode="E" horiz-adv-x="1328" d="M-4 1646q0 28 22 48t51 33t57 20t44 9h24h20q48 -4 122 -12t157 -17t168 -18t154 -18t116 -14t55 -5q16 -2 41 -7t51 -16t48 -26t32 -37q-16 -32 -28 -49t-26 -26t-29 -9h-37q-84 0 -169 6t-169 12t-169 12t-171 6q0 -36 -9 -108t-14 -152q-2 -29 -2 -57q0 -51 6 -102 q9 -79 45 -133q70 42 146 44t154 2h86t101 -12t83 -40t34 -84q0 -40 -16 -60t-74 -20q-6 0 -25 6t-40 14t-39 14t-24 6q-2 0 -15 1t-31 1t-35 1t-27 1q-46 0 -89 -6t-75 -24t-51 -52t-19 -88q0 -18 4 -62t11 -97t19 -109t32 -103t45 -78t61 -31q4 0 20 2t20 2q68 46 137 100 t143 101t154 80t166 33v-98q0 -8 -39 -44t-102 -84t-141 -102t-156 -99t-149 -75t-119 -30q-68 0 -121 61t-95 162t-70 233t-49 272t-34 279t-21 257t-11 205t-5 121q-10 0 -29 5t-39 12t-38 14t-24 11q-2 4 -2 8q-2 4 -2 10z" />
<glyph unicode="F" d="M0 1394v18q78 40 147 59t138 26t140 7h155q16 0 55 -1t84 -1h83h54q22 -8 34 -28t18 -42t8 -45t2 -35h-660v-430h716q0 -68 -42 -107t-105 -61t-141 -29q-68 -6 -130 -6h-18q-70 1 -124 5t-72 4v-42q0 -84 40 -159t89 -145t90 -138t41 -138q0 -44 -18 -77t-66 -33 q-50 0 -99 52t-95 139t-87 200t-78 236t-66 244t-49 226t-32 185t-12 116z" />
<glyph unicode="G" horiz-adv-x="1412" d="M-4 710q0 100 29 204t80 202t122 186t158 153t186 102t205 37q46 0 119 -10t142 -34t118 -63t49 -93q0 -4 -1 -7t-1 -7q-2 -4 -2 -8q-4 -6 -20 -23t-22 -21q-4 -2 -10 -2q-6 -2 -12 -2q-8 0 -12 2q-4 0 -8 2q-10 6 -48 25l-82 41l-82 41t-48 23q-8 0 -16 2q-6 0 -12 1 t-10 1q-94 0 -180 -34t-158 -94t-130 -138t-99 -165t-62 -178t-21 -177q0 -112 36 -200t100 -147t153 -89t193 -30q60 0 148 16t169 52t137 93t56 141q0 34 -10 53t-28 28t-44 10t-54 1q-44 0 -76 -14t-63 -32t-62 -32t-73 -14q-52 0 -82 16t-30 74q0 56 41 91t98 53t119 24 t102 6q72 0 134 -11t107 -40t69 -80t24 -131q0 -124 -68 -215t-171 -149t-222 -87t-221 -29q-144 0 -265 50t-207 141t-134 216t-48 269z" />
<glyph unicode="H" horiz-adv-x="1328" d="M-4 1242q0 10 1 35t1 52t1 51t1 32q50 54 83 64t53 -11t29 -67t13 -104t4 -122t2 -119t8 -97t22 -56h686q42 0 60 26t21 68q1 14 1 29q0 31 -4 67q-6 54 -11 111q-4 48 -4 94v18q1 55 18 97t53 68t106 26q26 -38 32 -83q4 -30 4 -61q0 -16 -1 -32q-3 -48 -10 -95t-7 -91 q0 -118 15 -236t32 -236t32 -235t15 -231q1 -21 1 -39q0 -93 -17 -138q-18 -48 -45 -48h-5q-30 5 -67 61t-68 150t-50 221q-16 105 -16 224q0 25 1 51h-722q14 -138 37 -260t36 -215q11 -76 11 -126q0 -12 -1 -22q-3 -55 -41 -57q-58 0 -98 39t-69 107t-47 159t-30 192 t-19 207t-13 204t-14 183t-20 145z" />
<glyph unicode="I" horiz-adv-x="1542" d="M26 1264v46t6 61t18 56t36 31h1100q-2 -64 -26 -98t-63 -52t-87 -23t-96 -11t-94 -15t-79 -35t-50 -71q-12 -31 -12 -76q0 -21 3 -45q0 -42 6 -111t20 -149t36 -161t55 -148t76 -108t101 -41q23 -2 53 -2q23 0 50 1q63 3 127 5q21 1 42 1q41 0 79 -3q57 -4 83 -24 q17 -13 17 -34q0 -11 -5 -25q-14 -39 -88 -105q-128 -48 -259 -65t-263 -18h-44l-220 4q-132 5 -262 5q-74 90 -88 138q-5 17 -5 31q0 24 16 36q25 19 80 20h19q47 0 100 -4q64 -5 128 -8q11 -1 22 -1q50 0 84 12q0 106 -26 230t-56 254t-58 259t-30 243h-446z" />
<glyph unicode="J" horiz-adv-x="1286" d="M-4 1394q0 4 2 10q0 4 2 8q6 6 17 14t26 15t26 12t17 5q38 2 115 6t175 9t211 11t226 11t216 7t185 2q0 -62 -24 -95t-59 -50t-76 -25t-76 -21t-59 -40t-24 -79q0 -104 21 -202t47 -195t47 -195t21 -198q0 -90 -40 -164t-105 -128t-146 -85t-161 -31q-32 0 -67 6t-64 23 t-48 42t-19 63q0 54 32 73t81 24t105 6t105 19t81 60t32 130q0 250 -27 420t-108 270t-224 136q-95 24 -229 24q-67 0 -144 -6q-6 2 -19 14t-27 26t-25 27t-15 19q-2 4 -2 8q-2 6 -2 14z" />
<glyph unicode="K" horiz-adv-x="1412" d="M38 1466v16q0 35 7 66q9 38 32 63t75 25q38 -52 49 -129t15 -162t9 -169t33 -148q2 -8 19 -23t23 -19q60 52 109 108t97 109t96 101t105 84t128 57t161 21q0 -48 -34 -96t-86 -97t-114 -100t-120 -104t-104 -106t-66 -107q34 -8 113 -39t180 -76t209 -97t198 -103 t147 -96t57 -73v-25t-3 -39t-13 -35t-32 -15q-84 2 -158 31t-144 72t-139 90t-141 90t-149 70t-167 31q-26 -42 -26 -82v-11q4 -45 27 -90t55 -92t56 -98t32 -107q2 -13 2 -27q0 -44 -20 -91q-4 -6 -15 -13t-24 -15t-27 -12t-18 -4q-26 0 -57 50t-66 136t-72 197t-72 230 t-64 240t-52 226t-36 185t-13 120q0 38 -2 82z" />
<glyph unicode="L" horiz-adv-x="1242" d="M0 1312q0 40 27 52t59 12q6 0 23 -2t21 -2q6 -62 12 -149t14 -188t20 -209t34 -211t54 -196t78 -161q10 -18 19 -27t18 -14t21 -6t30 -1q82 0 157 28t149 62t150 62t160 28q18 0 46 1t52 -3t42 -20t18 -48q0 -30 -54 -65t-138 -70t-183 -69t-190 -60t-161 -41t-92 -15 q-72 0 -127 49t-96 132t-69 190t-46 223t-28 230t-14 212t-5 172t-1 104z" />
<glyph unicode="M" horiz-adv-x="1756" d="M40 856q0 24 1 79t1 116t1 115t1 76q2 14 10 43t19 57t30 49t47 21q66 0 124 -36t112 -95t103 -131t97 -143t94 -134t92 -101q50 22 78 81t46 136t33 160t41 153t69 115t119 45q90 0 163 -70t131 -178t99 -240t69 -254t42 -220t14 -140q0 -18 -2 -39t-10 -38t-26 -26 t-52 1q-10 2 -23 11t-27 23t-24 27t-10 23q-18 98 -40 218t-55 243t-83 239t-124 200q-58 -32 -91 -97t-55 -142t-40 -157t-48 -145t-76 -107t-124 -42q-54 0 -105 35t-99 92t-93 126t-88 136t-84 125t-83 92q-16 -62 -25 -109t-14 -91t-6 -90t-1 -102q0 -84 14 -167 t30 -165t31 -165t15 -167v-16q-4 -6 -16 -19t-25 -27t-27 -25t-20 -15q-2 -2 -8 -2q-6 -2 -12 -2q-4 0 -10 2t-10 2q-14 116 -30 220t-29 206t-22 206t-9 224z" />
<glyph unicode="N" horiz-adv-x="1372" d="M0 856q0 18 4 62t12 92l15 90t13 58q6 2 21 2t32 2t32 3t21 1q96 0 182 -38t164 -96t152 -130t149 -140t153 -123t166 -83q0 10 1 31t1 45t1 45t1 31q0 126 -16 246t-36 240t-36 241t-16 249q14 0 35 -1t43 -6t40 -16t24 -33q8 -144 36 -289t58 -290t53 -290t23 -287 q0 -26 -1 -56t-8 -57t-23 -45t-48 -18q-104 0 -192 47t-171 117t-162 154t-162 154t-172 118t-191 48q0 -112 16 -215t35 -205t35 -203t16 -205q0 -38 -27 -52t-59 -14q-26 0 -49 5t-35 41q-8 32 -21 92t-28 132t-29 151t-26 154t-19 138t-7 103z" />
<glyph unicode="O" horiz-adv-x="1286" d="M0 556q0 102 27 207t76 201t119 179t155 144t185 96t210 35t191 -43t135 -115t80 -165t26 -189q0 -168 -50 -331t-148 -292t-243 -208t-333 -79q-112 0 -193 51t-134 132t-78 180t-25 197zM170 512q0 -54 18 -114t50 -110t81 -84t111 -34q134 0 244 61t190 158t124 217 t44 238q0 68 -4 140t-26 131t-69 96t-135 37q-28 0 -75 -2t-93 -11t-81 -27t-35 -50q0 -4 7 -17t15 -27t14 -27t6 -17t-16 -21t-26 -21q-100 -26 -167 -65t-106 -101t-55 -148t-16 -202z" />
<glyph unicode="P" horiz-adv-x="986" d="M20 1580q0 62 23 102t63 65t89 37t102 17q44 4 86 4h17q50 -1 92 -1q82 0 164 -16t145 -56t103 -107t40 -167q0 -88 -35 -175t-90 -166t-125 -144t-139 -111t-132 -72q-51 -21 -89 -21q-9 0 -16 1q-24 -78 -29 -167q-4 -64 -4 -125q0 -25 1 -49q2 -85 6 -162q1 -21 1 -40 q0 -52 -8 -92q-11 -55 -41 -82q-22 -20 -61 -20q-14 0 -31 3q-18 142 -27 288t-15 290t-11 281t-14 261t-25 232t-40 192zM258 978q82 0 174 44t168 112t126 154t50 170q0 62 -23 96t-60 52t-83 22t-96 4q-30 0 -74 -2t-85 -13t-69 -38t-28 -77v-524z" />
<glyph unicode="Q" horiz-adv-x="1628" d="M40 734q0 112 22 241t68 257t115 247t161 211t207 147t253 55q96 0 177 -34t147 -93t116 -136t83 -164t50 -177t17 -172t-27 -163t-58 -158t-58 -153t-27 -150v-20q22 -26 65 -70t87 -97t76 -112t32 -113q0 -38 -14 -59t-76 -21l-44 44q-14 16 -50 58t-76 90t-77 90 t-51 60h-22q-80 0 -157 -27t-155 -60t-159 -60t-169 -27q-118 0 -204 46t-142 123t-83 180t-27 217zM210 724q0 -84 13 -155t46 -122t93 -80t152 -29q24 0 69 4t98 13t108 23t99 37t73 52t29 69q0 12 -17 39t-44 65t-59 81t-61 86t-52 78t-29 59q14 36 37 41t51 5 q38 0 66 -23t51 -57t44 -74t44 -74t50 -57t65 -23t65 29t44 73t26 98t13 104t5 91t1 59q0 102 -21 206t-72 187t-134 136t-207 53q-94 0 -180 -49t-158 -130t-129 -185t-97 -215t-61 -219t-21 -196z" />
<glyph unicode="R" horiz-adv-x="1412" d="M-4 1412q0 16 1 53t1 78t1 78t1 51q22 42 69 61t102 26q43 5 84 5h24q53 -2 87 -2q44 0 103 -4t118 -15t117 -32t103 -54t72 -80t27 -111q0 -76 -36 -137t-89 -114t-116 -99t-116 -90t-89 -90t-36 -100q0 -4 3 -11t3 -9q236 -70 459 -170t439 -216q6 -4 13 -15t13 -26 t12 -27t6 -20q0 -18 -10 -27t-24 -14t-28 -5h-24q-108 0 -215 47t-215 105t-219 106t-231 48h-64q32 -74 57 -132t42 -112t26 -109t9 -119v-33t-2 -39t-12 -36t-32 -22q-82 48 -147 149t-113 231t-81 276t-54 287t-30 264t-9 205zM164 1135q2 -43 13 -82t37 -67q4 -2 8 -2 q2 -2 10 -2q36 0 87 22t107 58t111 83t99 97t71 101t27 93q0 40 -30 69t-72 47t-87 26t-73 8q-34 0 -80 1h-11q-40 0 -80 -6q-45 -7 -81 -25t-50 -54v-42v-65t-1 -65t-1 -44q0 -26 -3 -67q-2 -25 -2 -50q0 -17 1 -34z" />
<glyph unicode="S" horiz-adv-x="1070" d="M40 1070q0 66 27 125t72 112t104 97t124 74t131 47t122 17h22q18 -6 48 -20t58 -27t48 -24t20 -13v-46q-38 -4 -98 -15t-126 -29t-134 -45t-122 -63t-88 -83t-34 -107q0 -86 60 -135t150 -81t197 -57t197 -60t150 -92t60 -153q0 -52 -31 -109t-82 -112t-115 -105 t-131 -87t-131 -60t-114 -23q-16 0 -34 4t-31 13t-20 27t3 46q10 48 51 79t94 57t111 49t107 49t81 61t32 85q0 64 -33 106t-88 72t-125 50t-143 41t-143 46t-125 63t-88 92t-33 134z" />
<glyph unicode="T" horiz-adv-x="1628" d="M40 1328q0 28 5 50t39 34q75 -2 150 -2q112 0 221 4q183 6 366 17t366 21t369 10q0 -76 -36 -111t-89 -47q-45 -10 -99 -10h-18q-21 1 -42 1q-42 0 -81 -3q-59 -4 -104 -23t-59 -69q-2 -12 -4 -46t-3 -72t-2 -71t-1 -47q0 -114 29 -225t64 -220t64 -218t29 -221 q0 -84 -96 -84q-58 0 -103 80t-78 204t-54 270t-34 280t-18 236t-5 134q-8 28 -31 38t-50 11t-53 -3t-40 -4q-34 2 -118 8t-181 13t-181 14t-118 9q0 4 -2 20t-2 22z" />
<glyph unicode="U" horiz-adv-x="1242" d="M0 1286l86 86q32 -24 52 -59t32 -71q2 -76 2 -182t8 -220t30 -227t69 -203t126 -145t199 -55q110 0 189 52t132 132t78 179t25 193q0 182 -18 371t-66 365q14 36 36 41t48 5q52 0 82 -42t45 -107t18 -142q2 -38 1.5 -74.5t-1.5 -71.5q-3 -69 -8 -122t-5 -67 q0 -104 -5 -211t-24 -205t-56 -183t-99 -148t-154 -99t-220 -36q-162 0 -266 62t-167 165t-94 235t-44 270t-18 272t-13 242z" />
<glyph unicode="V" horiz-adv-x="1286" d="M0 1328v118q88 0 146 -52t98 -135t66 -190t50 -220t49 -220t64 -191t94 -135t141 -51q4 0 10 2q4 2 10 4q8 2 24 19t20 23q4 10 16 66t33 142t47 194t55 219t59 216t58 187t53 131t43 49q24 0 38 -10t20 -26t8 -35t2 -37q0 -30 -11 -106t-30 -179t-46 -225t-59 -247 t-70 -240t-77 -204t-80 -142t-81 -53q-54 0 -104 30t-94 78t-83 109t-70 123t-57 118t-42 98q-22 54 -53 131t-64 161t-66 169t-59 152t-42 111t-16 48z" />
<glyph unicode="W" horiz-adv-x="1756" d="M0 1204q0 32 13 59t51 27q32 0 63 -66t64 -169t69 -226t76 -238t84 -206t94 -127q48 20 77 71t47 122t27 154l18 166t19 162t29 139t49 96t76 36q28 0 50 -5t38 -41q8 -26 26 -76t41 -116t52 -141t60 -147t61 -137t58 -111q4 -8 21 -25t23 -19l86 86q34 34 52 101t27 155 t12 189t5 201t8 194t20 165t40 113t72 42q2 0 5 -1t7 -1q6 -2 8 -2t10 -7t15 -13t12 -12t7 -10q0 -14 1 -50t1 -78t1 -79t1 -51q0 -40 -1 -110t-6 -159t-14 -190t-27 -200t-45 -190t-66 -160t-90 -110t-121 -41q-68 0 -115 45t-81 112t-58 146t-49 147t-54 113t-71 45 q-4 0 -11 -2t-11 -2q-2 -8 -12 -70t-28 -147t-44 -183t-59 -180t-72 -137t-85 -55q-94 0 -172 71t-139 184t-107 251t-77 271t-46 248t-15 179z" />
<glyph unicode="X" horiz-adv-x="1286" d="M40 1372q0 8 1 24t4 29t13 23t26 10q48 0 83 -26t63 -65t52 -84t51 -84t60 -65t79 -26t84 30t73 75t72 98t81 98t100 75t130 30q0 -54 -25 -98t-61 -83t-79 -77t-80 -79t-61 -89t-24 -106q0 -28 40 -78t99 -109t129 -120t132 -113t106 -88t54 -44q0 -4 2 -21t2 -23 q0 -34 -15 -62t-53 -28q-4 0 -11 2t-9 2q-16 14 -45 41t-67 61t-80 71t-80 70t-70 60t-46 39q-18 16 -46 39t-55 44t-47 35t-22 12l-44 -44q-16 -18 -23 -78t-13 -141t-12 -171t-19 -166t-39 -126t-68 -50q-38 0 -57 24t-25 59q-5 30 -5 61v10q1 36 1 60q0 84 14 164t30 160 t31 159t15 163v44q-10 8 -40 35t-67 65t-80 85t-78 97t-58 98t-23 92z" />
<glyph unicode="Y" horiz-adv-x="1286" d="M40 2062q0 10 1 24t4 27t13 22t26 9q50 0 86 -35t66 -93t56 -132t53 -150t57 -150t67 -132t85 -93t110 -35q4 0 11 2t11 2q56 50 101 133t83 179t74 198t75 190t82 154t99 92l86 -88q9 -9 9 -31q0 -14 -4 -34q-11 -49 -38 -122t-67 -162t-84 -185t-88 -191t-79 -179 t-57 -150t-22 -104q0 -120 35 -232t75 -223t74 -222t34 -227v-41t-7 -47t-26 -34t-55 -2q-74 108 -130 245t-96 285t-59 299q-16 125 -16 239q0 24 1 48q-78 16 -156 72t-149 136t-134 178t-109 198t-72 194t-26 168z" />
<glyph unicode="Z" horiz-adv-x="1756" d="M0 1608q0 40 40 66t103 37t135 14q54 2 102 2h31q61 -1 102 -5t43 -4h69t103 -1t103 -2t69 -1q38 -10 90 -22t100 -32t81 -52t33 -78q0 -110 -44 -215t-112 -208t-151 -205t-160 -207t-137 -214t-86 -223h88q134 0 267 8t267 17t268 17t268 8v-138q-80 -4 -181 -20 t-215 -34t-235 -39t-240 -38t-231 -28t-204 -11q-26 0 -39 10t-21 25t-9 33t-1 34q0 136 51 259t128 238t167 225t168 219t129 218t51 223l-1 3t-1 7q-2 4 -2 8q-18 18 -54 30t-78 22t-86 16t-81 9t-61 5l-24 2q-94 0 -161 -15t-124 -31t-112 -30t-125 -14q-44 0 -62 35 t-18 77z" />
<glyph unicode="[" horiz-adv-x="1116" d="M39 1111q-1 19 2 37t12 33t31 19q208 66 430 109t440 43v-37t-5 -45t-15 -42t-34 -28q-18 -4 -55 -11t-84 -15t-98 -17t-98 -17t-84 -14t-53 -10q-10 -4 -41 -8t-66 -13t-66 -26t-41 -41q24 -100 35 -202t18 -205t13 -205t20 -202h128q66 0 131 6t130 14t131 16t130 8 q20 0 38 -2t34 -11t29 -26t19 -49q2 -4 -2 -18t-10 -27t-15 -25t-15 -14q-28 -4 -84 -10t-127 -15t-151 -18t-152 -18t-129 -15t-85 -10h-48q-52 0 -88 68t-60 175t-37 236t-19 249t-7 215t-1 137q0 12 -1 31z" />
<glyph unicode="\" horiz-adv-x="1040" d="M32 1624q0 6 8 19t18 25t20 21t18 11q18 2 62 -44t103 -124t130 -181t145 -217t145 -229t131 -216t105 -181t65 -122q12 -24 6 -41t-19 -31t-30 -23t-33 -15q-48 -22 -103 7t-113 93t-118 158t-120 200t-115 220t-102 217t-86 191t-65 144q-4 8 -11 25t-15 36t-15 35 t-11 22z" />
<glyph unicode="]" horiz-adv-x="1200" d="M8 1282q0 70 51 114t129 69t174 34t189 10t171 -2t118 -3q20 0 52 -1t61 -1h51h24q12 -114 20 -201t13 -165t6 -150t1 -154q0 -72 8 -142t18 -139t18 -137t8 -138q0 -50 -34 -90t-88 -71t-120 -53t-129 -37t-115 -22t-78 -7q-62 0 -78 35t-16 89q0 4 1 13t3 19q2 8 6 18 l428 130q0 14 2 26q2 10 3 22t1 20t-1 24l-2 32t-2 30t-1 18q-4 90 -16 191t-19 203t-1 198t36 178q0 6 -1 16t-1 22t-1 23t-1 17q-224 0 -445 -19t-443 -19z" />
<glyph unicode="^" horiz-adv-x="856" d="M54 1310q0 38 13 96t36 124t54 136t67 130t77 105t81 63q40 -22 82 -64t85 -95t84 -112t79 -113t71 -100t55 -70q-2 -4 -12 -16t-24 -25t-28 -27t-22 -20h-8q-6 -2 -12 -2q-8 0 -14 2h-8q-60 40 -92 95t-60 104t-64 83t-102 34q-42 -102 -66 -166t-40 -100t-30 -51 t-37 -17t-62 2t-103 4z" />
<glyph unicode="_" d="M0 44v126q26 2 83 7t128 8t150 9t151 9t130 6t86 5h52q30 0 55 -14t25 -50q0 -18 -15 -37t-37 -35t-44 -25t-36 -9h-728z" />
<glyph unicode="`" d="M206 1514q8 40 26 51t41 3t50 -33t55 -57t54 -68t46 -68q2 -2 9 -12t13 -16q22 -26 21 -53t-14 -45t-38 -20t-47 22z" />
<glyph unicode="a" horiz-adv-x="1242" d="M40 434q0 76 20 158t59 163t93 154t122 129t145 89t163 33q144 -14 226 -71t124 -146t58 -198t25 -225t23 -232t58 -214q-26 -66 -49 -93t-51 -9t-65 88t-91 198q-76 -52 -131 -93t-107 -69t-111 -42t-145 -14q-186 0 -276 99t-90 295zM210 430q0 -114 43 -167t153 -53 q82 0 157 29t131 80t90 123t34 160q0 36 2 101v22q0 54 -8 107q-10 64 -38 111t-84 47q-104 0 -192 -53t-152 -135t-100 -181t-36 -191z" />
<glyph unicode="b" horiz-adv-x="1242" d="M40 1372q0 14 1 51t1 77t1 77t1 51q18 40 63 74t91 34q0 -148 4 -315t25 -333t68 -325t133 -291q2 48 4 106t11 116t29 112t59 96t102 66q58 22 144 22h15q86 0 155 -32t116 -87t72 -128t25 -155q0 -110 -54 -216t-143 -190t-199 -135t-224 -51q-58 0 -112 21t-86 69 q-62 180 -117 337t-96 308t-65 307t-24 334zM556 214q4 0 21 -2t23 -2q54 0 123 34t134 84t113 111t58 117q1 8 1 16q0 28 -15 62q-20 44 -53 85t-72 69t-73 28q-40 -22 -84 -52t-81 -93t-63 -171t-32 -286z" />
<glyph unicode="c" horiz-adv-x="944" d="M0 602q0 84 37 176t99 167t143 125t171 50q46 0 92 -16t83 -46t60 -72t23 -94q-36 0 -65 8t-57 19t-55 19t-59 8q-82 0 -133 -41t-81 -103t-41 -133t-11 -133q0 -10 1 -38t2 -59t2 -59t3 -38q22 -48 43 -74t45 -39t52 -16t66 -3q52 0 91 16t73 38t64 49t63 50t72 38 t89 15q0 -98 -35 -174t-98 -130t-148 -83t-185 -29q-94 0 -169 64t-128 157t-81 197t-28 184z" />
<glyph unicode="d" horiz-adv-x="1116" d="M-4 236q0 116 58 206t144 157t186 114t186 78t144 50t58 31q0 70 -7 137t-15 135t-15 135t-7 133v130q37 14 65 14q33 0 52 -20q21 -21 21 -61q0 -27 -10 -63q8 -44 22 -138t31 -212t36 -248t36 -249t29 -212t18 -139q2 -10 4 -39t3 -62t2 -61t1 -40q-76 0 -103 6t-34 24 t-7 52t-20 94q-74 -58 -140 -96t-132 -61t-133 -32t-143 -9q-64 0 -123 11t-105 39t-74 76t-28 120zM170 278q0 -32 14 -52t36 -34t47 -19t49 -5q70 0 151 27t150 76t114 117t45 148q0 62 -22 86t-84 24q-64 0 -149 -30t-164 -80t-133 -117t-54 -141z" />
<glyph unicode="e" horiz-adv-x="1116" d="M40 556q0 108 26 216t83 194t148 140t221 54q74 0 130 -27t94 -71t57 -103t19 -123q0 -102 -47 -198t-126 -169t-181 -110q-66 -24 -134 -24q-37 0 -74 7q2 -58 39 -93t89 -53t108 -23t100 -5q46 0 86 8t80 18t81 18t87 8q18 0 36 -2t34 -9t26 -22t10 -37q0 -38 -28 -63 t-71 -43t-95 -27t-101 -14t-90 -6t-61 -1q-128 0 -230 41t-172 114t-107 176t-37 229zM252 686q0 -70 19 -102t93 -32q52 0 102 19t91 53t65 80t24 100q0 30 -5 62t-21 59t-41 44t-65 17q-60 0 -109 -27t-83 -70t-52 -96t-18 -107z" />
<glyph unicode="f" horiz-adv-x="1412" d="M46 928h336q10 112 34 222t65 210t99 186t140 148t189 98t243 36q48 0 96 -23t86 -61t61 -86t23 -96q-38 0 -68 15t-58 34t-60 36t-72 17q-120 0 -223 -48t-180 -128t-121 -186t-44 -224q0 -8 1 -29t1 -45t1 -46t1 -30q74 -24 166 -36t185 -15q40 -1 79 -1q51 0 101 2 q87 4 155 10l22 -22t18 -24q0 -6 2 -8l4 -12q0 -42 -44 -66t-112 -35t-151 -15t-160 -7t-138 -8t-85 -19q26 -120 93 -232t137 -224t124 -226t54 -234q-8 0 -37 -1t-61 3t-61 17t-33 39q-42 78 -93 195t-105 244t-113 249t-119 212q-24 18 -66 22q-34 3 -70 3h-18h-23 q-34 0 -68 2q-45 3 -78 21t-49 56q-10 23 -10 60q0 22 4 50z" />
<glyph unicode="g" horiz-adv-x="1158" d="M0 536q0 66 32 129t85 118t120 101t138 80t140 52t123 18q52 0 86 -3t58 -16t41 -40t33 -73q46 -156 106 -336t114 -370t91 -383t37 -373q0 -160 -45 -271t-118 -182t-166 -109t-187 -49q-61 -7 -119 -7q-32 0 -63 2q-88 6 -152 23t-97 39t-16 37t91 21q22 2 51 2 q68 0 173 -10q112 0 200 41t149 112t94 162t33 189q0 50 -5 132t-15 178t-29 196t-47 189t-69 156t-95 95q-52 -40 -102 -73t-104 -55t-112 -35t-124 -13q-86 0 -147 16t-102 54t-61 100t-20 156zM160 525v-16q0 -55 24 -95q28 -46 81 -69q28 -12 60 -12q29 0 61 10 q68 21 145 91t155 208q0 34 1 74v9q0 35 -7 64q-8 33 -30 55t-66 22q-148 -32 -239 -89t-136 -122t-49 -130z" />
<glyph unicode="h" horiz-adv-x="976" d="M42 547q2 109 11 222t18 214t18 184t9 133q0 22 5 55t18 63t33 51t52 21q2 0 10 -2t10 -2q34 -124 40 -246q2 -46 2 -91q0 -75 -6 -146q-10 -115 -30 -222t-33 -197t-16 -162v-16q0 -62 21 -106q-4 32 -5 77v9q0 41 8 84q9 48 30 96t61 86t103 60t157 22q98 0 169 -34 t117 -93t69 -138t23 -169q0 -42 -1 -95t-14 -98t-46 -76t-97 -31q0 32 4 87t5 117v21q0 52 -4 105q-5 64 -27 115t-61 84t-107 33q-24 0 -59 -3t-71 -19t-70 -49t-54 -90t-23 -144v-20q0 -81 21 -193q-14 -36 -35 -42t-53 -6q-64 0 -105 45t-63 121t-29 176q-5 78 -5 161v48 z" />
<glyph unicode="i" horiz-adv-x="472" d="M54 1366q0 54 21 94t77 40q38 -16 64 -52q23 -32 23 -59v-6q-3 -29 -45 -40q-10 -3 -24 -3q-42 0 -116 26zM124 750q0 12 1 39t2 57t2 58t1 40q22 32 57 52t71 32q6 -108 34 -230t60 -245t57 -243t25 -224q0 -90 -92 -90q-56 0 -94 46t-61 117t-37 158t-19 171t-6 154 t-1 108z" />
<glyph unicode="j" horiz-adv-x="602" d="M-434 -630q58 0 106 -30t101 -65t115 -65t144 -30t160 21t140 64t100 112t38 163q0 156 -25 324t-64 335t-84 325t-83 292q0 2 -2 10t-2 10q0 40 28 55t60 15q8 0 24 -2t20 -2q62 -156 117 -319t97 -331t66 -337t24 -335q0 -130 -45 -236t-125 -180t-191 -114t-241 -40 q-86 0 -171 19t-154 61t-111 111t-42 169zM36 1394v24t4 37t14 33t30 14q34 0 52 -9t26 -22t10 -32t2 -43q0 -16 -2 -36t-8 -38t-20 -29t-38 -11t-38 11t-21 27t-9 36t-2 38z" />
<glyph unicode="k" horiz-adv-x="1158" d="M39 1543q-1 29 6 54t26 45t59 30q4 2 17 -3t27 -12t25 -15t15 -14q-5 -70 -5 -140q0 -300 91 -588q6 6 32 41t66 82t91 101t107 100t112 77t108 31q30 0 59 -14t29 -54q0 -4 -2 -11t-2 -11q-32 -28 -97 -86t-137 -130t-138 -150t-100 -148q-6 -12 -4 -21t4 -21 q22 -8 70 -24t106 -37t124 -44t124 -45t105 -39t71 -25q28 -12 46 -16t28 -11t14 -19t4 -36q0 -58 -28 -76t-80 -18q-154 10 -302 65t-300 133q-2 -13 -2 -28q0 -27 7 -60q11 -50 27 -100t31 -98t18 -86t-9 -60t-54 -22q-11 -10 -22 -10q-22 0 -45 36q-35 54 -71 163 t-71 261t-67 322t-61 345t-51 329q0 28 -1 57z" />
<glyph unicode="l" horiz-adv-x="468" d="M76 1343q4 43 31 69t99 26q22 -46 43 -140t41 -216t38 -265t33 -287t26 -283t17 -253q-35 -24 -63 -24q-24 0 -43 18q-40 38 -66 129t-40 222t-27 272t-31 278t-46 243q0 58 -8 113q-5 37 -5 68q0 16 1 30z" />
<glyph unicode="m" horiz-adv-x="1756" d="M-4 840q0 50 17 78t73 28q6 0 23 -1t21 -1q14 -62 29 -135t35 -147t45 -146t61 -130q36 38 52 90t24 105t15 102t29 84t65 51q22 8 51.5 8t67.5 -8q84 0 134 -31t87 -78t72 -100t89 -95l30 65t45 82t58 86t65 78t70 58t70 23q82 0 142 -51t103 -128t71 -172t44 -183 t23 -161t7 -105q0 -26 -12 -40t-30 -21t-39 -9t-39 -2q-4 0 -12 1t-18 3q-8 2 -22 6l-130 598q0 6 -16 23t-24 21q-6 0 -10 2q-4 0 -6 1t-4 1q-42 0 -79 -34t-69 -86t-60 -116t-50 -127t-39 -116t-27 -81q-8 -4 -32 -7t-32 -3q-56 0 -86 39t-49 97t-32 127t-32 127t-52 97 t-93 39q-22 0 -42 -44t-36 -111t-30 -144t-23 -144t-13 -113l-4 -46q-4 -6 -16 -13t-25 -15t-26 -12t-19 -4q-56 0 -108 51t-95 132t-78 179t-59 192t-37 170t-13 116z" />
<glyph unicode="n" horiz-adv-x="1158" d="M40 674q0 52 26 75t84 23h20q6 -32 14 -74t24 -86t38 -81t54 -59q2 70 35 135t82 116t108 86t117 47h44q96 0 164 -43t113 -112t69 -157t37 -179t16 -176t3 -145h-146q-12 120 -30 230q-6 44 -16 93t-22 92t-26 80t-32 63q-8 8 -21 22t-27 28t-26 24t-14 10q-17 5 -34 5 q-39 0 -70 -28q-44 -39 -78 -105t-55 -150t-35 -161t-20 -134t-8 -69q-35 -25 -68 -25q-13 0 -26 4q-44 15 -83 63t-70 120t-57 153t-47 163t-37 152z" />
<glyph unicode="o" d="M40 406q0 124 58 231t153 184t214 121t241 44q68 0 121 -44t89 -107t55 -133t19 -122q0 -112 -54 -217t-140 -186t-194 -131t-216 -50q-96 0 -162 33t-106 88t-59 130t-19 159zM210 386q0 -52 9 -91t32 -67t61 -43t94 -15q74 0 148 41t133 104t95 139t36 148q0 32 -6 70 t-20 70t-40 54t-66 22q-36 0 -85 -24t-102 -62t-104 -86t-93 -96t-67 -92t-25 -72z" />
<glyph unicode="p" horiz-adv-x="944" d="M40 738q0 194 90 288t276 94q76 0 157 -14t149 -49t111 -97t43 -160q0 -108 -47 -203t-118 -178t-156 -154t-159 -135q-4 -8 -7 -33t-3 -33q0 -66 39 -133t85 -136t84 -143t38 -154q0 -48 -20 -57t-84 -9q-40 16 -79 75t-78 145t-76 193t-70 218t-62 220t-51 201t-39 159 t-23 95zM210 720q0 -30 4 -87t17 -113t39 -97t72 -41q62 0 125 42t112 106t80 137t31 133q0 50 -24 79t-61 46t-79 22t-80 5q-114 0 -175 -61t-61 -171z" />
<glyph unicode="q" horiz-adv-x="1102" d="M44 556q0 110 42 185t111 121t157 65t180 19q102 -4 184 -67t147 -163t113 -225t79 -255t45 -252q12 -107 12 -193v-24q-2 -95 -17 -151q-14 -51 -39 -51q-3 0 -6 1q-54 8 -81 47t-42 97t-18 127t-5 138t-7 132t-19 104t-44 57q-12 6 -28 6q-23 0 -54 -14q-42 0 -82 -14 t-80 -32t-81 -32t-87 -14q-88 0 -158 29t-119 81t-76 123t-27 155zM214 536q0 -34 17 -68t45 -62t62 -46t68 -18t88 15t106 44t90 68t38 87q0 68 -8 118t-28 82t-58 47t-100 15q-50 0 -106 -23t-103 -63t-79 -91t-32 -105z" />
<glyph unicode="r" horiz-adv-x="1022" d="M40 840q0 18 2 37t8 34t19 25t37 10q20 0 45 -31t51 -78t51 -103t44 -103t31 -81t14 -36q26 70 58 152t79 153t112 119t159 48q48 0 91 -15t76 -44t53 -69t20 -92q0 -44 -35 -62t-79 -18h-20l-86 86q-4 0 -6 2q-4 0 -7 1t-7 1q-70 0 -109 -39t-59 -96t-25 -120t-5 -115 q0 -40 8 -81t18 -80t18 -80t8 -85q0 -84 -90 -84q-50 0 -104 53t-107 135t-101 181t-84 193t-57 170t-21 112z" />
<glyph unicode="s" horiz-adv-x="986" d="M40 818q0 108 41 195t109 154t153 118t171 87q52 -14 96 -50t76 -80q-14 -44 -55 -68t-94 -42t-111 -38t-105 -53t-79 -86t-32 -139q0 -64 32 -94t84 -41q41 -9 90 -9q14 0 28 1q66 3 135 9t135 7h7q62 0 111 -16q52 -17 83 -55t31 -112q0 -32 -21 -82t-56 -107t-82 -113 t-98 -101t-102 -74t-95 -29q-42 0 -55 30t-13 60q32 22 77 57t91 75t86 84t63 85t23 77t-36 60q-64 0 -140 -5q-63 -4 -127 -4h-25q-76 1 -147 13t-127 44t-89 91t-33 151z" />
<glyph unicode="t" horiz-adv-x="1286" d="M-4 1008q0 6 2 10q0 4 2 10q8 10 24 26t20 16h402q0 22 -6 70t-11 106q-4 41 -4 85q0 18 1 36q2 63 17 114t48 84t93 33q0 -202 28 -324t75 -188t107 -86q52 -17 107 -17h16q63 3 123 19t107 22q13 2 25 2q30 0 50 -11q28 -15 28 -71q0 -42 -19 -60t-73 -28 q-16 -2 -53 -7t-83 -9t-98 -9t-98 -9t-84 -5t-56 -1q0 -10 -2 -34t-2 -32q0 -88 28 -171t61 -165t61 -164t28 -170q0 -16 -3 -33t-12 -30t-26 -20t-47 3q-76 20 -113 86t-55 157t-24 193t-19 191t-41 152t-90 77l-386 88q-8 0 -24 17t-20 25q-2 4 -2 10q-2 4 -2 12z" />
<glyph unicode="u" d="M40 816q0 12 1 43t1 65t1 63t1 41q14 24 33 47t40 32t46 3t51 -40v-16v-26q-2 -10 -8 -47t-14 -81t-15 -81t-7 -47q0 -38 8 -95t23 -119t38 -124t55 -111t71 -81t91 -32q64 0 113 34t85 88t59 122t37 137t20 133t6 112t-7 91t-17 85t-17 83t-7 83q0 38 27 54t61 16 q42 0 68 -25t41 -63t20 -87t5 -97t-2 -91t-2 -69q0 -68 -10 -154t-35 -177t-62 -179t-90 -157t-122 -111t-155 -42q-90 0 -158 43t-115 114t-79 161t-49 180t-24 175t-7 147z" />
<glyph unicode="v" horiz-adv-x="1070" d="M28 1042q14 48 33 44t47 -46t63 -112t75 -151t87 -165t98 -154t108 -116t117 -54l160 828q4 34 31 39t53 5q90 0 90 -84q0 -44 -8 -140t-26 -211t-44 -236t-62 -221t-83 -164t-103 -64q-82 0 -162 55t-151 144t-130 199t-102 221t-67 213t-24 170z" />
<glyph unicode="w" horiz-adv-x="1502" d="M-4 856q0 34 15 62t53 28q2 0 6 -1t8 -1h8q6 -4 23 -20t21 -24q6 -12 25 -52t46 -93t56 -112t56 -113t46 -93t27 -51q2 -6 19 -23t25 -21q16 28 32 84t33 123t35 138t41 128t51 94t64 37q52 0 99 -40t90 -104t82 -143t74 -156t66 -142t61 -103q24 8 40 40t25 67t13 66 t6 41q2 22 6 69t9 107t9 124t9 124t8 107t3 67q4 0 20 3t22 3q28 0 50 -6t34 -42q0 -14 1 -50t2 -77t2 -78t1 -51q0 -32 1 -99v-34q0 -53 -2 -115q-3 -82 -13 -167t-31 -156t-57 -116t-90 -45q-62 0 -116 30t-101 80t-89 111t-77 124t-64 120t-51 97q-16 -36 -29 -90 t-29 -117t-36 -126t-45 -114t-58 -83t-75 -32q-20 0 -36 -1t-30 2t-26 13t-22 32l-342 730q0 2 -2 17t-2 23z" />
<glyph unicode="x" horiz-adv-x="986" d="M-4 964q0 38 32 53t62 15q4 0 9 -1t13 -1q6 -2 18 -2l280 -236q72 104 117 162t71 85t39 32t19 5h31t35 -3t31 -13t19 -32q-34 -34 -64 -68t-56 -73t-49 -87t-47 -108q38 -28 95 -79t116 -112t115 -124t93 -119t48 -96t-15 -52q-28 -36 -38 -53t-21 -11t-29 38t-65 91 t-129 149t-218 214l-16 -494q0 -2 -8 -8t-17 -13t-19 -13t-18 -10h-24h-20q-10 8 -27 24t-17 20v558l-342 342q-2 2 -2 6q-2 4 -2 14z" />
<glyph unicode="y" horiz-adv-x="986" d="M6 1034q0 18 1 37t8 36t20 26t39 9h5h7q6 -2 10 -2q38 -52 66 -133t54 -172t56 -184t78 -167t118 -118q62 -39 150 -39q12 0 24 1q46 0 60 50t15 128v26q0 68 -4 146q-3 47 -3 91.5t3 87.5q5 85 30 149t87 86q26 -52 43 -163t25 -256t8 -314t-8 -336t-24 -321t-36 -270 t-47 -183q-23 -58 -49 -58q-4 0 -8 1q-42 40 -65 104t-32 142q-7 64 -7 134v31q2 87 7 175t12 172t7 154q-13 -1 -26 -1q-59 0 -121 23q-75 28 -147 87t-137 143t-114 190t-77 229t-28 259z" />
<glyph unicode="z" horiz-adv-x="1158" d="M0 1158q0 34 5 51t15 24t25 8t33 1h52q24 -2 78 -5t122 -6t143 -8t142 -9t120 -8t81 -6q36 -22 61 -40t40 -36t22 -39t7 -53q0 -68 -28 -133t-71 -130t-98 -130t-107 -129t-98 -128t-72 -124h514q58 0 74 -22t16 -62q0 -28 -6 -52t-42 -36q-96 -8 -194 -24l-196 -32 t-197 -28t-197 -12q0 144 45 277t116 257t156 240t167 222q4 4 7 11t3 11q0 46 -55 61q-52 14 -127 14h-10q-82 -1 -177 -9q-84 -7 -159 -7h-18q-82 1 -137 20t-55 71z" />
<glyph unicode="{" horiz-adv-x="944" d="M158 1416q0 70 31 138t82 120t119 84t142 32q24 0 53 -5t56 -15t49 -26t34 -40q-48 -28 -113 -50t-127 -51t-106 -74t-44 -121q0 -62 23 -114t57 -99t75 -91t75 -91t56 -99t22 -114q0 -40 -14 -74t-30 -65t-31 -63t-15 -68q0 -8 -4 -64t-5 -136t3 -171t22 -168t53 -129 t95 -52q40 0 71 16t58 34t54 33t63 15t51 -29t15 -65q0 -58 -35 -99t-87 -67t-110 -37t-104 -11q-90 0 -153 52t-108 136t-72 188t-42 207t-20 195t-5 152q0 36 20 72t48 69t58 65t50 66q-54 70 -110 141t-100 145t-72 155t-28 173z" />
<glyph unicode="|" horiz-adv-x="556" d="M102 1350q4 44 32 70t98 26q40 -36 75 -124t65 -209t53 -266t38 -294t23 -294t6 -265q-50 -32 -87 -18t-65 64t-51 128t-41 175t-32 203t-30 212t-34 204t-38 178q0 56 -8 111t-4 99z" />
<glyph unicode="}" horiz-adv-x="686" d="M10 1548q0 44 15 74t41 47t59 24t71 7q46 0 101 -18t104 -49t82 -76t33 -99q0 -2 -1 -5t-1 -5q-2 -6 -2 -10q-2 -10 -16 -40t-32 -70t-38 -85t-38 -84t-31 -69t-17 -38v-22q0 -60 23 -100t57 -68t72 -50t73 -44t57 -49t22 -67q0 -42 -16 -71t-41 -50t-54 -41t-54 -43 t-41 -52t-16 -73q0 -46 15 -85t32 -78t32 -79t15 -90q0 -60 -13 -123t-45 -114t-81 -84t-121 -33q-32 0 -63 2t-56 11t-41 29t-16 58q0 52 18 75t48 33t63 14t63 16t49 40t19 88q0 42 -21 85t-45 89t-45 94t-21 100v10t2 12q0 8 2 16q4 8 25 39t43 67t41 68t19 40 q0 42 -27 87t-60 94t-60 102t-27 111q0 60 21 110t47 96t47 93t21 99t-37 79t-85 39t-97 14t-73 2z" />
<glyph unicode="~" horiz-adv-x="1242" d="M68 1028q0 66 12 139t44 134t89 101t147 40q64 0 111 -29t84 -72t69 -94t68 -95t79 -72t101 -28q68 0 99 20t41 53t7 73t-3 79t9 70t43 49h20h20q6 -2 19 -7t26 -11t26 -13t17 -9q0 -8 1 -23t1 -32t1 -33t1 -20q0 -176 -92 -275t-264 -99q-66 0 -114 26t-85 66t-67 87 t-62 86t-69 66t-87 27q-64 0 -91 -25t-37 -63t-10 -84t-6 -90t-25 -79t-65 -51l-46 42q0 6 -2 25t-4 41t-4 45t-2 35z" />
<glyph unicode="&#xa1;" horiz-adv-x="376" d="M84 -39q54 -46 84 -20t45 97.5t17 171.5t3 204.5t4 198.5t17 149q0 27 -4 47.5t-14 33t-32 19t-58 6.5q-6 0 -12 -5.5t-12 -32t-12 -82.5t-11 -157t-10 -253.5t-5 -376.5zM115 1264q-3 -19 10 -38.5t32 -33.5t41 -18.5t36 6.5q26 0 51 15t32 36t-13 46.5t-86 47.5 q-54 -7 -77 -24.5t-26 -36.5z" />
<glyph unicode="&#xa2;" horiz-adv-x="944" d="M0 602q0 84 37 176t97 166q52 60 112 106q-10 128 -10 238q34 76 65 64t57 -84q24 -60 46 -152q22 4 46 4q46 0 92 -16t83 -46t60 -72t23 -94q-36 0 -65 8t-57 19t-55 19t-59 8q-16 0 -32 -2q14 -66 26 -138q26 -142 48 -292q22 -142 46 -266q12 8 24 14q34 24 64 51 t63 50t72 38t89 15q0 -98 -35 -174t-97 -130q-60 -50 -138 -80q4 -10 8 -24q24 -94 48 -130q-2 0 -30 -4t-59 -9t-57 -9t-28 -4q-22 70 -44 148h-34q-94 0 -169 64t-128 157t-81 197t-28 184zM206 536q0 -10 1 -38t2 -59t2 -59t3 -38q22 -48 43 -74t45 -39t50 -17 q16 -2 36 -2q-38 172 -72 352q-24 134 -44 266q-8 -12 -14 -28q-30 -60 -41 -131t-11 -133z" />
<glyph unicode="&#xa3;" horiz-adv-x="1242" d="M-162 666q0 6 2 22t2 20q30 0 78 3t106 7q-8 82 -13 176t-7 180t-4 150t-2 88q0 94 56 134t143 44t193 -23t207 -69t185 -92t125 -93t29 -72t-104 -29q-2 0 -52 16t-127 40t-168 52t-168 51t-179 55q4 -42 8 -113t7 -152t9 -167t14 -162q54 4 105 7t97 4t83 0t61 -5 q36 0 50 -8t14 -56q-34 -22 -79 -38t-96 -26t-105 -17t-106 -9q10 -66 16 -113t15 -85t25 -73t44 -77q38 -24 46 -35t14 -9t24 16t73 39t161 61t288 82q126 -16 191 -63t90 -103t18 -110t-24 -86t-36 -29t-19 61q0 74 -49 107t-126 34t-168 -22t-173 -54t-145 -66t-81 -59 q-36 -42 -71 -40t-70 38t-67 99t-60 141t-48 167t-30 175h-112q-56 -4 -73 21t-17 65z" />
<glyph unicode="&#xa4;" horiz-adv-x="1372" d="M76 1152q0 40 31 54t63 14q2 0 8 -1t12 -1q8 -2 18 -2l206 -202q98 90 224 140t260 50q36 0 68 -14t58 -36q42 16 82 36t74 39t55 31t25 12q26 0 48 -33t32 -75q-26 -24 -86 -59t-134 -75q30 -60 45 -123t15 -111q0 -92 -37 -181t-103 -165q46 -50 83 -98t58 -88t25 -67 t-18 -37q-24 -28 -35 -45t-19 -19t-17 10t-29 43t-57 80t-101 119q-78 -64 -169 -99t-183 -35q-42 0 -76 6t-64 18l-142 -196q0 -2 -7 -9t-17 -13l-20 -12t-18 -10h-46l-24 24t-16 20l170 276q-46 58 -67 136t-21 170q0 70 20 137t56 125l-226 246q-2 4 -2 8q-2 2 -2 12z M386 602q0 -50 9 -89t32 -67t62 -43t95 -15q74 0 147 41t132 104t96 138t37 147q0 34 -6 71t-21 70t-41 54t-66 21q-66 0 -149 -25t-155 -78t-122 -135t-50 -194z" />
<glyph unicode="&#xa5;" horiz-adv-x="1286" d="M40 2062q0 10 1 24t4 27t13 22t26 9q50 0 86 -35t66 -93t56 -132t53 -150t57 -150t67 -132t85 -93t110 -35q4 0 11 2t11 2q56 50 101 133t83 179t74 198t75 190t82 154t99 92l86 -88q16 -16 5 -65t-38 -122t-67 -162t-84 -185l-88 -190q-44 -96 -79 -180t-57 -150 q-6 -24 -12 -44h28q68 4 127 7t105 7h26q40 0 52 -27t12 -59q0 -48 -17 -75t-73 -51q-16 0 -55 -1t-83 -1t-84 -2h-48l4 -176h10q92 0 160 -5t88 -3q58 4 74 -21t16 -61q0 -50 -27 -76t-68 -38t-87 -15t-82 -5q-22 -2 -74 -4q6 -180 6 -368v-42q0 -24 -7 -45t-25 -33t-56 -4 q-72 108 -98 248q-22 114 -28 238h-44q-70 0 -135 -2t-117 -3t-74 -1q0 82 56 131t140 73q80 24 174 32l8 122l4 50h-20q-58 0 -118 6t-113 20t-93 41t-60 71l42 44q164 10 314 16q30 2 58 2q0 20 2 38q-78 16 -156 72t-149 136t-134 178t-109 198t-72 194t-26 168z" />
<glyph unicode="&#xa6;" horiz-adv-x="472" d="M68 1302v74q0 54 10 104t33 88t67 38q34 0 53 -46t28 -118t10 -159t2 -166t4 -143t13 -88l-154 -16q-16 66 -27 118t-20 101t-14 99t-5 114zM140 754h162q22 -82 28 -179t9 -186t5 -161t12 -104q0 -4 2 -12t2 -12q0 -20 -14 -34t-35 -21t-44 -10t-41 -3q-6 0 -22 2t-20 2 q-26 82 -28 170t1 179t3 182t-20 187z" />
<glyph unicode="&#xa7;" horiz-adv-x="974" d="M44 1074q0 98 35 164t91 105t130 56t152 16t156 -18t142 -43q46 -20 56 -49t-2 -55t-39 -43t-55 -11q-38 10 -91 23t-110 23t-112 11t-99 -15t-71 -56t-27 -110q0 -56 39 -83t98 -36t129 -3t136 16q52 2 104 -5t94 -28t68 -56t26 -87q0 -28 -2 -65t-10 -78t-26 -80 t-52 -72t-86 -55q-46 -22 -108 -30q60 2 116 -6q62 -10 109 -38t74 -76t27 -120q0 -66 -46 -108t-119 -66t-161 -34t-172 -12t-155 0t-107 2q-34 0 -40 27t4 57t30 52t40 10q42 -10 110 -18t142 -10t143 6t110 31t45 63t-50 104q-58 0 -124 -2t-131 1t-125 15t-106 42 t-74 79t-28 125q0 100 43 174t113 130q-50 8 -93 23t-74 43t-49 70t-18 100zM278 532q0 -30 10 -46t30 -22t46 -8t58 -6q46 2 101 22t105 51t87 71t50 82t-8 83t-87 77q-24 6 -63 7t-83 -9t-88 -31t-79 -57t-57 -89t-22 -125z" />
<glyph unicode="&#xa8;" horiz-adv-x="1536" d="M428 1468q-2 30 22 59t84 43q90 0 90 -94q-22 -58 -55 -78t-63 -14t-53 30t-25 54zM882 1468q-2 30 21 59t85 43q90 0 90 -94q-24 -58 -56 -78t-63 -14t-53 30t-24 54z" />
<glyph unicode="&#xa9;" horiz-adv-x="1652" d="M68 710q0 86 15 178t44 180t75 167t108 139t141 96t177 36q164 32 330 -11t298 -144t213 -253t79 -338q2 -116 -40 -227t-117 -209t-177 -176t-219 -128t-243 -68t-250 4q-100 0 -171 36t-119 98t-77 139t-43 162t-19 167t-5 152zM200 612q0 -82 17 -173t58 -170 t111 -130t174 -51q104 -22 209 -1t203 70t180 122t142 155t89 167t17 159q22 76 -1 157t-76 154t-129 135t-163 106t-181 62t-178 4q-88 0 -158 -37t-122 -100t-89 -143t-59 -165t-33 -169t-11 -152zM412 754q0 66 31 139t83 134t120 100t144 39q40 0 79 -12t69 -37t49 -58 t19 -73q-28 0 -53 6t-48 15t-46 16t-49 7q-68 0 -111 -34t-68 -82t-35 -106t-10 -106q0 -10 1 -31t2 -45t2 -46t1 -32q18 -36 35 -58t38 -32t45 -12t54 -2q66 0 110 25t83 57t82 57t107 25q0 -78 -29 -139t-83 -104t-125 -65t-153 -22q-80 0 -144 51t-109 125t-68 156 t-23 144z" />
<glyph unicode="&#xaa;" horiz-adv-x="738" d="M32 523q0 41 12 85t35 87.5t54.5 83t71.5 69.5t85 48t95 18q85 -8 133 -38.5t72.5 -78.5t34 -106.5t14.5 -121t13.5 -125t33.5 -115.5q-15 -36 -28.5 -50.5t-30 -4.5t-38 47.5t-53.5 106.5q-44 -28 -76.5 -50t-63 -37t-65 -22.5t-84.5 -7.5q-109 0 -162 53t-53 159z M132 521q0 -62 25 -90.5t90 -28.5q48 0 92 15.5t76.5 43t52.5 66.5t20 86q0 20 1.5 55t-4.5 69.5t-22.5 59.5t-49.5 25q-61 0 -112.5 -28.5t-89 -72.5t-58.5 -97.5t-21 -102.5z" />
<glyph unicode="&#xab;" horiz-adv-x="1652" d="M40 514q0 66 40 132t106 129t150 118t171 97t170 66t145 24q0 -58 -29 -106t-77 -90t-107 -81t-116 -77t-109 -80t-84 -90q-2 -6 -4 -8v-12v-12q2 -6 4 -10q4 -2 19 -20t23 -22q10 -8 47 -30t86 -54t104 -66t103 -66t84 -55t50 -31q4 -2 21 -19t19 -21q0 -6 2 -12 q0 -2 1 -6t1 -6t-1 -5t-1 -5q-2 -6 -2 -10q-4 -8 -18 -24t-27 -29t-25 -23t-16 -10q-32 0 -99 25t-148 67t-166 96t-156 112t-116 114t-45 100zM660 518q0 66 41 132t106 129t150 118t171 96t169 66t147 25q0 -58 -30 -106t-78 -90t-106 -81t-116 -77t-109 -80t-83 -90 q-2 -6 -4 -10t-2 -10q0 -8 2 -12q2 -6 4 -10q4 -4 19 -21t23 -21q12 -8 48 -31t84 -54t103 -65t104 -66t85 -55t48 -31q6 -4 22 -20l20 -20q0 -6 2 -12q0 -4 1 -7t1 -5t-1 -5t-1 -7q-2 -4 -2 -8q-6 -10 -19 -25t-27 -28t-26 -23t-14 -10q-34 0 -100 25t-147 67t-167 96 t-157 112t-116 114t-45 100z" />
<glyph unicode="&#xac;" horiz-adv-x="1252" d="M86 720q0 70 51 115t129 69t174 33t189 11t170 -1t119 -3q20 0 51 -1t61 -1t52 -1t24 -1q10 -86 18 -140t14 -91t11 -64t8 -59t5 -75t6 -113h-158q-4 62 -8 100t-8 63t-8 42t-6 36t-4 46t-2 75q-226 0 -446 -20t-442 -20z" />
<glyph unicode="&#xad;" d="M152 650q0 6 2 23t2 19q32 0 87 5t121 10t137 11t135 8t118 2t84 -6q36 0 51 -8t15 -54q-60 -40 -150 -59t-184 -27t-183 -8t-145 -2q-54 -4 -72 22t-18 64z" />
<glyph unicode="&#xae;" horiz-adv-x="1504" d="M80 684q0 82 20 174t57 180t92 168t124 140t154 95t183 35q90 0 180 -31t173 -83t154 -123t124 -154t82 -171t29 -176q0 -104 -26 -209t-77 -199t-126 -172t-172 -133t-214 -82t-253 -15q-102 0 -177 36t-131 97t-94 139t-61 162t-32 168t-9 154zM222 620q0 -82 24 -173 t73 -168t125 -129t180 -52q94 -18 177 -10t153 37t128 76t100 105q-56 10 -112 31t-117 45t-129 49t-150 43q24 -42 41 -76t29 -66t17 -64t5 -70q0 -8 -10 -19t-25 -23t-32 -22t-31 -12q-44 34 -74 97t-53 141t-37 163t-25 166t-21 150t-22 111q-8 66 15 110t61 67t86 29 t92 0q48 0 113 -6t123 -25t99 -53t41 -90q6 -84 -13 -144t-51 -101t-74 -66t-81 -38t-71 -17t-46 -4q0 -4 2 -6l4 -4q134 -36 261 -82t253 -98q32 76 41 156t-9 156q0 92 -42 192t-112 185t-163 139t-199 54q-132 0 -234 -68t-170 -171t-104 -223t-36 -222zM580 813 q2 -25 9 -48t27 -39q2 -2 4 -2q0 -2 8 -2q112 8 174 36t87 64t19 75t-32 71t-67 52t-83 17t-81 -34t-61 -99q0 -16 -3 -41t-1 -50z" />
<glyph unicode="&#xaf;" horiz-adv-x="840" d="M100 1166q0 6 2 23t2 21q50 0 129 6t162 11t160 5t123 -8q36 0 51 -8t15 -56q-60 -38 -133 -55t-148 -23t-146 -3t-127 1q-54 -4 -72 22t-18 64z" />
<glyph unicode="&#xb0;" horiz-adv-x="640" d="M26 659q0 70 30 130.5t79 104t110.5 68t124.5 24.5q36 0 63 -24.5t46 -60t28.5 -75t9.5 -69.5q0 -63 -28 -122t-72.5 -105t-100 -74t-111.5 -28q-50 0 -84 18.5t-55 49.5t-30.5 73.5t-9.5 89.5zM114 648q0 -30 4.5 -52t16.5 -37.5t31.5 -24t48.5 -8.5q38 0 76.5 23 t69 58.5t49 78.5t18.5 84q0 18 -3 39.5t-10 39.5t-20.5 30.5t-34.5 12.5q-19 0 -44 -14t-52.5 -35t-54 -48.5t-48 -54.5t-34.5 -51.5t-13 -40.5z" />
<glyph unicode="&#xb1;" horiz-adv-x="1326" d="M78 738q0 8 2 12v10l24 24t20 16h428q14 106 34 216t52 216h44q10 -4 24 -11t27 -14t23 -13t10 -8v-402q34 0 87 12t101 13t82 -18t34 -81q0 -36 -22 -53t-56 -25t-73 -11t-73 -10t-57 -21t-23 -44q0 -48 17 -85t39 -72t41 -72t23 -81q54 0 106 4t96 9t78 7t50 0 q18 0 27 -14t14 -34t6 -45t1 -47q-40 -26 -120 -42t-180 -24t-210 -11t-210 -2t-178 2t-116 1q-26 -2 -43 9t-25 30t-10 40t-2 41q0 52 35 66t99 10t156 -15t206 -7q-28 42 -47 92t-33 101t-23 99t-11 82l-428 86q-6 0 -23 17t-21 25v10q-2 4 -2 12z" />
<glyph unicode="&#xb2;" horiz-adv-x="862" d="M21 963q0 64 21 124.5t60 108t93.5 76.5t119.5 29q29 0 46.5 -2.5t30 -11t21 -24.5t18.5 -44v-34t0.5 -53.5t1 -54.5t0.5 -36q0 -63 -7 -124.5t-16.5 -121.5t-16.5 -120.5t-7 -123.5h21l275 129q1 0 5.5 0.5t10 0.5t11 0.5t7.5 0.5q11 0 22.5 -1t21.5 -4.5t17 -12 t7 -23.5q0 -25 -15.5 -39.5t-35.5 -23t-42 -14.5t-36 -13q-10 -6 -33 -18t-53 -27l-63 -31.5t-62 -32.5t-52.5 -28t-35.5 -17q-2 0 -7 -0.5t-11.5 -0.5t-12 -0.5t-7.5 -0.5q-24 0 -37 5.5t-19 17t-7 28t-1 42.5q0 66 12 130t27 129t27.5 131.5t12.5 135.5q0 9 -0.5 31.5 t-0.5 46.5t-0.5 46t-0.5 31q-3 5 -12 14.5t-13 11.5h-13q-38 0 -64 -17.5t-44 -42.5t-33 -55.5t-33 -56t-41 -43t-57 -17.5z" />
<glyph unicode="&#xb3;" horiz-adv-x="664" d="M0 1140v26q0 43 23 82t58 68.5t75 46.5t75 17q53 0 88.5 -19.5t58 -53t33.5 -76.5t14.5 -90t1 -95.5t-4.5 -90.5q48 -9 89 -25t72 -42.5t48.5 -65.5t17.5 -95q0 -30 -10 -69.5t-29.5 -82.5t-44.5 -83.5t-54 -73t-61 -52.5t-65 -20q-22 0 -30.5 16.5t-8.5 36.5 q0 4 1.5 14.5t1.5 12.5q29 21 64 55t65 74t50.5 84.5t20.5 89.5q0 2 -1 4.5t-1 5.5v3q-4 5 -14.5 17t-22 24t-22.5 23.5t-15 15.5q-2 0 -6 2q-2 0 -3.5 0.5t-4.5 0.5q-22 0 -51 -19t-56.5 -43t-49 -46t-28.5 -28q-3 -1 -6 -1q-2 -1 -7 -1t-6 1q-3 0 -6 1q-4 3 -14 13.5 t-11 15.5v11v13q9 31 25.5 78t32.5 98t28 102.5t12 92.5q0 29 -2 58t-11.5 52.5t-27 37t-47.5 13.5q-40 0 -71 -24t-52.5 -60.5t-30.5 -77.5t-5 -77h-49q-2 0 -5.5 12t-7.5 29t-7.5 35t-5.5 29z" />
<glyph unicode="&#xb4;" d="M323 1207q-1 29 21 57q6 6 13 17t9 15q20 32 46 72t54 75t55 62t51 36t41 -4t25 -57l-216 -320q-24 -28 -48 -24t-37 23t-14 48z" />
<glyph unicode="&#xb5;" d="M38 564q0 88 1 155t1 97q0 12 1 43t1 65t1 63t1 41q14 24 33 47t40 32t46 3t51 -40v-42q-2 -10 -8 -47t-14 -81t-15 -81t-7 -47q0 -38 8 -95t23 -119t38 -124t55 -111t71 -81t91 -32q64 0 113 34t85 88t59 122t37 137t20 133t6 112t-7 91t-17 85t-17 83t-7 83q0 38 27 54 t61 16q42 0 68 -25t41 -63t20 -87t5 -97t-2 -91t-2 -69v-96q0 -58 1 -127t1 -147v-150q0 -72 -1 -140t-1 -120q-2 -70 -34 -78t-94 20q-10 6 -16 30t-11 51t-10 46t-15 13q-18 -12 -57 -33t-84 -40t-88 -34t-65 -15q-68 0 -123 25t-99 69q-10 10 -14 18t-7 15t-5 16t-10 23 q-4 8 -6 -24t-4 -77t-7 -90t-13 -67q-10 -24 -26 -32t-32 -6t-30 13t-16 21q-16 42 -24 119t-12 168t-5 190t-1 187z" />
<glyph unicode="&#xb6;" horiz-adv-x="1430" d="M84 1070q0 102 25 192t79 158t137 108t197 40q94 0 158 -4t130 -8t152 -8t226 -4q26 0 44 -44t29 -111t17 -148t8 -153t4 -125t6 -65q8 -32 6 -94t-6 -139t-10 -162t-9 -162t-2 -138t11 -91q0 -4 2 -11t2 -11q0 -22 -14 -35t-35 -21t-43 -10t-40 -2q-8 0 -23 2t-19 2 q-2 162 -7 337t-11 346t-9 332t-3 299q0 14 -18 14t-49 -4t-70 -4t-79 16q38 -72 63 -157t37 -173t16 -173t4 -157v-38q-4 -26 -12 -74t-17 -108t-19 -123t-19 -123t-16 -108t-13 -72q-14 -30 -37 -38t-50 -7t-58 8t-61 7q0 108 14 191t31 161t32 160t15 190q0 6 -1 28 t-2 46t-2 46t-1 28q-54 -58 -95 -94t-78 -53t-81 -22t-102 -5q-76 -8 -144 18t-117 77t-71 121t-2 152z" />
<glyph unicode="&#xb7;" horiz-adv-x="620" d="M170 540q0 32 25 60t59 49t72 33t62 12q58 0 74 -34t16 -86q0 -38 -16 -66t-43 -45t-63 -25t-74 -8q-6 0 -12 2q-6 0 -10 2q-6 2 -19 13t-26 25t-25 27t-16 19q-2 4 -2 10q-2 4 -2 12z" />
<glyph unicode="&#xb8;" horiz-adv-x="986" d="M174 -66q-4 78 12 115t41 43t53 -12t49 -45t28 -56t-9 -49q0 -64 22 -95t58 -43t83 -10t96 6t96 3t83 -18t59 -57t23 -114q0 -48 -48 -119t-119 -139t-153 -116t-148 -48q-42 0 -55 30t-13 62q30 22 76 51t93 60t91 64t68 63t25 60t-37 54q-96 0 -181 -5t-150 18t-104 89 t-39 208z" />
<glyph unicode="&#xb9;" horiz-adv-x="368" d="M43 963v38t7 50t21.5 43.5t46.5 18.5q17 0 28.5 -22t19 -55t11 -72.5t5.5 -74.5t3.5 -61t3.5 -32q5 -16 16.5 -47t25 -71t29.5 -83t30.5 -82t26.5 -70.5t19 -44.5q0 -2 1.5 -6t1.5 -6q0 -11 -10.5 -17.5t-24.5 -9.5t-29 -4t-27 -1q-6 0 -16 1t-13 1q-28 68 -60 144 t-57.5 154t-42 157t-16.5 152z" />
<glyph unicode="&#xba;" horiz-adv-x="766" d="M31 723q0 86 39 161t103 128.5t144 84.5t162 31q46 0 81.5 -31t59.5 -75t37 -93t13 -85q0 -78 -36.5 -151.5t-94.5 -130t-130.5 -91.5t-144.5 -35q-65 0 -109.5 23t-71.5 61.5t-39.5 91t-12.5 111.5zM145 709q0 -37 6 -64t21.5 -46.5t41 -30t63.5 -10.5q50 0 99.5 28.5 t89.5 72.5t64 97t24 103q0 23 -4 49.5t-13.5 48.5t-27 37.5t-44.5 15.5q-24 0 -57 -16.5t-68.5 -43t-70 -60t-62.5 -67t-45 -64.5t-17 -50z" />
<glyph unicode="&#xbb;" horiz-adv-x="1526" d="M32 1170q54 0 141 -17t183 -46t194 -69t176 -87t128 -99t50 -102q0 -4 -2 -11t-2 -11l-54 -66q-36 -42 -82 -98t-97 -117t-98 -115t-85 -98t-56 -64q-30 -34 -48 -58t-33 -40t-34 -24t-53 -8q-8 0 -23 1t-30 5t-26 13t-11 27q0 32 28 84t72 111t95 122t99 120t84 100 t52 63q0 4 2 11t2 11l-2 10q-2 4 -2 10q-4 8 -20 24t-24 20q-12 8 -48 30t-84 54t-103 66t-103 65t-84 54t-50 29q-30 20 -41 42t-11 58zM548 1250q56 0 142 -17t182 -45t193 -69t176 -87t128 -97t49 -103q0 -4 -2 -11t-2 -11q-16 -22 -53 -66t-83 -99t-97 -116t-98 -116 t-84 -98t-55 -63q-32 -34 -50 -58t-33 -41t-33 -25t-50 -8q-10 0 -25 1t-29 6t-25 14t-11 27q0 32 28 83t71 111t94 123t99 119t85 99t51 63q0 4 3 11t3 11q0 2 -4 12q-2 6 -2 10q-4 8 -20 24t-24 20q-12 6 -48 29t-85 54t-103 65t-102 66t-85 54t-47 30q-34 20 -44 41 t-10 57z" />
<glyph unicode="&#xbc;" horiz-adv-x="1674" d="M34 1178v48t7.5 64t23 55.5t48.5 23.5q18 0 30 -28t20 -70t11.5 -92.5t5.5 -95.5t3.5 -78.5t4.5 -40.5q4 -20 16 -60t26.5 -91t31.5 -106t32 -105t27.5 -90t19.5 -58q0 -2 1.5 -7t1.5 -8q0 -13 -10.5 -21.5t-25.5 -12.5t-30.5 -5.5t-28.5 -1.5q-6 0 -16.5 1.5t-13.5 1.5 q-30 87 -63 184t-60 197t-44.5 201t-17.5 195zM348 138q3 17 11 60.5t16 93t15 91.5t10 59q12 68 36.5 187.5t60 256t81 275.5t102 244t122.5 160.5t142 26.5q-24 -135 -61.5 -254.5t-80 -234.5t-86.5 -227.5t-85.5 -228t-75.5 -241.5t-53 -268q-9 -70 -33 -81t-55 1 q-23 7 -42 21.5t-24 58.5zM544 372q0 51 20.5 121.5t57.5 147t86.5 151.5t107.5 135t122.5 97t128.5 37q14 0 38 -0.5t47.5 -4.5t41 -13t17.5 -27q0 -2 -3 -8q-2 -4 -2 -5q-3 -6 -11 -14.5t-17.5 -17.5t-19.5 -17t-13 -10q0 -9 -0.5 -32.5t-0.5 -50t-1 -50.5t-1 -33 q0 -42 -0.5 -80.5t2.5 -76.5t9.5 -75t20.5 -76q5 0 13.5 -0.5t18.5 -0.5t19 -1t13 -1q19 0 38 1t35.5 6t29.5 16.5t22 35.5q45 -17 54.5 -40t9.5 -55q0 -39 -19 -59.5t-50 -29.5t-71 -10t-81 -2q6 -13 14.5 -45t19 -68t18.5 -67t11 -43q0 -3 1.5 -14.5t1.5 -18.5 q0 -35 -22 -45t-60 -10q-4 0 -22 1.5t-23 1.5q-3 16 -11.5 51.5t-18 75.5t-19.5 75.5t-15 49.5q-4 10 -12.5 27t-21 33t-28 27t-29.5 11h-446zM703 497h319q0 41 -4.5 100.5t-9.5 117.5t-11.5 106t-6.5 68q-47 -29 -97 -74.5t-92.5 -99t-70 -110.5t-27.5 -108z" />
<glyph unicode="&#xbd;" horiz-adv-x="1586" d="M127 1149v49t7 64.5t22 57t47 24.5q18 0 30 -29t19.5 -71.5t11 -94t5.5 -97t3.5 -79.5t4.5 -41q4 -21 15.5 -61.5t25.5 -92t31 -107.5t31.5 -106.5t27 -91.5t19.5 -58q0 -3 1 -8t1 -8q0 -14 -10 -22t-25 -12.5t-30 -6t-28 -1.5q-5 0 -15.5 1.5t-13.5 1.5 q-29 89 -61.5 187.5t-59 200t-43 204t-16.5 197.5zM271 -2q3 17 8 61.5t10.5 94.5t10 93t7.5 60q8 69 24.5 190.5t40.5 260.5t55.5 280t70 248t83 163.5t96.5 26.5q-16 -137 -41.5 -258.5t-54.5 -238.5t-59 -231t-58.5 -232t-51.5 -245.5t-36 -272.5q-6 -71 -22.5 -82 t-37.5 1q-15 7 -28 22t-17 59zM442 685q0 69 22 134t63 115.5t97.5 81.5t125.5 31q29 0 47.5 -2.5t32 -11.5t22 -26.5t19.5 -46.5v-37t0.5 -57t1 -59t0.5 -38q0 -68 -7.5 -133.5t-17.5 -130t-17.5 -129.5t-7.5 -132h22l288 138q1 0 5.5 0.5t10.5 0.5t11.5 0.5t8.5 0.5 q11 0 23 -1t22.5 -5t17.5 -13t7 -24q0 -27 -15.5 -42.5t-37 -24.5t-44 -15.5t-37.5 -14.5q-11 -6 -35 -19t-55.5 -29t-65.5 -34t-64.5 -35t-55 -30t-37.5 -18q-2 0 -7.5 -0.5t-12 -0.5t-12 -0.5t-8.5 -0.5q-24 0 -38 5.5t-20.5 18t-7.5 30.5t-1 45q0 71 13 139.5t28.5 138 t28.5 141t13 145.5q0 10 -0.5 33.5t-0.5 49.5t-0.5 50t-0.5 33q-3 5 -12.5 15t-13.5 13h-14q-40 0 -67 -18.5t-45.5 -46t-34.5 -60t-35 -59.5t-43 -46t-59 -19z" />
<glyph unicode="&#xbe;" horiz-adv-x="1896" d="M0 1152v24q0 40 24 76.5t60 64.5t77.5 44t77.5 16q55 0 91.5 -18.5t60 -49.5t35 -71.5t15 -84.5t1 -89.5t-4.5 -85.5q49 -8 91.5 -23t74 -39.5t50.5 -61t19 -88.5q0 -29 -11 -66t-31 -77t-45.5 -78t-55.5 -68.5t-63.5 -49t-67.5 -18.5q-23 0 -32 15.5t-9 34.5q0 3 2 13 t2 12q30 20 66 51.5t67 69t52 79.5t21 83q0 2 -0.5 4.5t-0.5 4.5v4q-5 4 -15.5 15t-22.5 22.5t-23.5 22t-15.5 15.5q-2 0 -6 1q-2 0 -4 0.5t-4 0.5q-23 0 -53 -18t-58.5 -40.5t-51 -42.5t-29.5 -26q-2 -1 -6 -1q-2 -1 -7 -1t-6 1q-4 0 -6 1q-5 2 -15 12t-12 15v10v13 q10 29 27 72.5t33.5 91.5t29 96t12.5 86q0 28 -2 55t-12 49t-28 35t-49 13q-42 0 -73.5 -22.5t-54 -57t-32 -73t-4.5 -71.5h-52q-1 0 -4.5 11.5t-7.5 27t-8 32t-6 27.5zM457 96q3 18 9 64t12.5 99t12 98t7.5 63q10 72 29.5 199.5t47.5 273.5t64.5 294t81 260t96.5 171 t112 29q-19 -145 -48.5 -272.5t-63 -250t-68.5 -242t-68 -243.5t-59.5 -257.5t-42.5 -285.5q-6 -75 -25.5 -86.5t-44.5 1.5q-17 7 -32.5 22.5t-19.5 62.5zM650 358q0 51 19.5 121.5t55.5 147t84.5 151.5t105 135t119.5 97t125 37q14 0 37.5 -0.5t46 -4.5t39.5 -13t17 -27 q0 -2 -3 -8q-1 -4 -1 -5q-3 -6 -11 -14.5t-17 -17.5t-19 -17t-13 -10q0 -9 -0.5 -32.5t-0.5 -50t-0.5 -50.5t-0.5 -33q0 -42 -1 -80.5t2 -76.5t9.5 -75t20.5 -76q4 0 12.5 -0.5t18.5 -0.5t18.5 -1t12.5 -1q18 0 36.5 1t35 6t29 16.5t21.5 35.5q44 -17 53 -40t9 -55 q0 -39 -18.5 -59.5t-49 -29.5t-69.5 -10l-78 -2q5 -13 13.5 -45t18.5 -68t18 -67t11 -43q0 -3 1.5 -14.5t1.5 -18.5q0 -35 -21.5 -45t-58.5 -10q-4 0 -21.5 1.5t-22.5 1.5q-2 16 -10.5 51.5t-18 75.5t-19.5 75.5t-14 49.5q-4 10 -12.5 27t-20.5 33t-27 27t-29 11h-434z M804 483h311q0 41 -4 100.5t-9 117.5t-11.5 106t-6.5 68q-45 -29 -94 -74.5t-90.5 -99t-68.5 -110.5t-27 -108z" />
<glyph unicode="&#xbf;" horiz-adv-x="894" d="M275 233q0 70 23 127t55.5 107t67 96.5t59 97t29.5 107.5t-20 131q5 6 20 12.5t31 12.5l32 12t23 6q55 0 87 -22.5t50.5 -54.5t23.5 -69t5 -66q0 -70 -36 -131t-76.5 -119.5t-76.5 -119.5t-36 -131q0 -25 18.5 -47.5t46 -39t62 -26t66.5 -9.5q47 0 87.5 19.5t75 45.5 t65.5 55t61 49q5 4 33 7.5t36 3.5q0 -75 -26 -139t-78 -111t-129.5 -73t-176.5 -26q-69 0 -142 25t-129.5 67t-93.5 94.5t-37 108.5zM279 1439q0 37 12.5 55.5t32.5 25t45.5 6.5h55.5q10 0 37 1t58 -2t53 -11.5t22 -31.5q0 -24 -22 -53t-53 -54.5t-66.5 -42.5t-67.5 -17 q-5 0 -26 16.5t-31 25.5q-5 6 -13.5 18.5t-17.5 26t-14 24.5t-5 13z" />
<glyph unicode="&#xc0;" horiz-adv-x="1372" d="M37 55q-7 79 2 211t34 291t61 333t87 336t114 301t137 229q12 36 35 42t53 6q46 0 103 -61t117 -163t121 -234t118 -273t107 -281t87 -257t57 -203t20 -118t-15 -61t-53 -29q-24 0 -41 15t-29 37t-22 44t-18 38q-8 22 -33 84t-52 130t-51 128t-34 86q-140 24 -281 45 t-297 41h-22q-72 -310 -127 -490t-92 -256t-58 -63t-28 92zM424 1052q0 -74 48 -109t116 -45t143 -8t129 2q0 80 -26 173t-66 185t-85 179t-83 157q-22 -22 -47 -81t-50 -132t-45 -143t-30 -114q0 -6 -2 -31t-2 -33zM442 2164q8 40 26 51t41 3t50 -33t55 -57t54 -68t46 -68 q2 -2 9 -12t13 -16q22 -26 21 -53t-14 -45t-38 -20t-47 22z" />
<glyph unicode="&#xc1;" horiz-adv-x="1372" d="M37 55q-7 79 2 211t34 291t61 333t87 336t114 301t137 229q12 36 35 42t53 6q46 0 103 -61t117 -163t121 -234t118 -273t107 -281t87 -257t57 -203t20 -118t-15 -61t-53 -29q-24 0 -41 15t-29 37t-22 44t-18 38q-8 22 -33 84t-52 130t-51 128t-34 86q-140 24 -281 45 t-297 41h-22q-72 -310 -127 -490t-92 -256t-58 -63t-28 92zM367 1961q-1 29 21 57q6 6 13 17t9 15q20 32 46 72t54 75t55 62t51 36t41 -4t25 -57l-216 -320q-24 -28 -48 -24t-37 23t-14 48zM424 1052q0 -74 48 -109t116 -45t143 -8t129 2q0 80 -26 173t-66 185t-85 179 t-83 157q-22 -22 -47 -81t-50 -132t-45 -143t-30 -114q0 -6 -2 -31t-2 -33z" />
<glyph unicode="&#xc2;" horiz-adv-x="1372" d="M37 55q-7 79 2 211t34 291t61 333t87 336t114 301t137 229q12 36 35 42t53 6q46 0 103 -61t117 -163t121 -234t118 -273t107 -281t87 -257t57 -203t20 -118t-15 -61t-53 -29q-24 0 -41 15t-29 37t-22 44t-18 38q-8 22 -33 84t-52 130t-51 128t-34 86q-140 24 -281 45 t-297 41h-22q-72 -310 -127 -490t-92 -256t-58 -63t-28 92zM188 1894q0 38 13 96t36 124t54 136t67 130t77 105t81 63q40 -22 82 -64t85 -95t84 -112t79 -113t71 -100t55 -70q-2 -4 -12 -16t-24 -25t-28 -27t-22 -20h-8q-6 -2 -12 -2q-8 0 -14 2h-8q-60 40 -92 95t-60 104 t-64 83t-102 34q-42 -102 -66 -166t-40 -100t-30 -51t-37 -17t-62 2t-103 4zM424 1052q0 -74 48 -109t116 -45t143 -8t129 2q0 80 -26 173t-66 185t-85 179t-83 157q-22 -22 -47 -81t-50 -132t-45 -143t-30 -114q0 -6 -2 -31t-2 -33z" />
<glyph unicode="&#xc3;" horiz-adv-x="1372" d="M37 55q-7 79 2 211t34 291t61 333t87 336t114 301t137 229q12 36 35 42t53 6q46 0 103 -61t117 -163t121 -234t118 -273t107 -281t87 -257t57 -203t20 -118t-15 -61t-53 -29q-24 0 -41 15t-29 37t-22 44t-18 38q-8 22 -33 84t-52 130t-51 128t-34 86q-140 24 -281 45 t-297 41h-22q-72 -310 -127 -490t-92 -256t-58 -63t-28 92zM120 1970q0 66 12 139t44 134t89 101t147 40q64 0 111 -29t84 -72t69 -94t68 -95t79 -72t101 -28q68 0 99 20t41 53t7 73t-3 79t9 70t43 49h40q6 -2 19 -7t26 -11t26 -13t17 -9q0 -8 1 -23t1 -32t1 -33t1 -20 q0 -176 -92 -275t-264 -99q-66 0 -114 26t-85 66t-67 87t-62 86t-69 66t-87 27q-64 0 -91 -25t-37 -63t-10 -84t-6 -90t-25 -79t-65 -51l-46 42q0 6 -2 25t-4 39l-4 46q-2 24 -2 36zM424 1052q0 -74 48 -109t116 -45t143 -8t129 2q0 80 -26 173t-66 185t-85 179t-83 157 q-22 -22 -47 -81t-50 -132t-45 -143t-30 -114q0 -6 -2 -31t-2 -33z" />
<glyph unicode="&#xc4;" horiz-adv-x="1372" d="M37 55q-7 79 2 211t34 291t61 333t87 336t114 301t137 229q12 36 35 42t53 6q46 0 103 -61t117 -163t121 -234t118 -273t107 -281t87 -257t57 -203t20 -118t-15 -61t-53 -29q-24 0 -41 15t-29 37t-22 44t-18 38q-8 22 -33 84t-52 130t-51 128t-34 86q-140 24 -281 45 t-297 41h-22q-72 -310 -127 -490t-92 -256t-58 -63t-28 92zM236 2052q-2 30 22 59t84 43q90 0 90 -94q-22 -58 -55 -78t-63 -14t-53 30t-25 54zM424 1052q0 -74 48 -109t116 -45t143 -8t129 2q0 80 -26 173t-66 185t-85 179t-83 157q-22 -22 -47 -81t-50 -132t-45 -143 t-30 -114q0 -6 -2 -31t-2 -33zM690 2052q-2 30 21 59t85 43q90 0 90 -94q-24 -58 -56 -78t-63 -14t-53 30t-24 54z" />
<glyph unicode="&#xc5;" horiz-adv-x="1372" d="M37 55q-7 79 2 211t34 291t61 333t87 336t113 300q56 128 124 212q-30 6 -52 16q-38 18 -64 50t-36 74t-10 92q0 70 35 129t91 102t129 68t147 25q40 0 72 -25t54 -60t34 -74t12 -71q0 -62 -33 -121t-85 -105q-50 -46 -114 -72l24 -24q58 -60 118 -162t121 -234t118 -273 t107 -281t87 -257t57 -203t20 -118t-15 -61t-53 -29q-24 0 -41 15t-29 37t-22 44t-18 38q-8 22 -33 84t-52 130t-51 128t-34 86q-140 24 -281 45t-297 41h-22q-72 -310 -127 -490t-92 -256t-58 -63t-28 92zM424 1052q0 -74 48 -109t116 -45t143 -8t129 2q0 80 -26 173 t-66 185t-85 179t-83 157q-22 -22 -47 -81t-50 -132t-45 -143t-30 -114q0 -6 -2 -31t-2 -33zM444 1966q0 -30 2 -50t10 -34t27 -21t55 -7q88 0 142 49t54 129q0 18 -4 42t-13 47t-26 38t-41 15q-32 0 -68 -23t-67 -57t-51 -70t-20 -58z" />
<glyph unicode="&#xc6;" horiz-adv-x="1870" d="M66 65q-6 79 3 210t32 291t61 333t87 335t112 302t139 230q62 44 114 20t98 -100q32 14 64 22t52 10h42q48 -4 115 -12t139 -19t142 -21t128 -19t97 -15t47 -6q18 -2 43 -8t50 -16t47 -26t32 -38q-16 -32 -28 -49t-25 -25t-29 -9t-36 -1q-86 0 -170 6l-338 24 q-86 8 -172 8q0 -38 -9 -109t-13 -151t4 -159t44 -133q70 40 146 43t154 3h86q52 0 101 -12t83 -40t34 -84q0 -40 -16 -61t-74 -21q-4 0 -23 7t-41 15t-40 15t-24 7q-2 0 -15 1t-31 1t-35 1t-27 1q-46 0 -88 -7t-75 -26t-52 -53t-19 -88q0 -20 4 -62t11 -95t20 -110t33 -104 t45 -77t59 -30q6 0 23 2t19 2q66 44 135 99t144 102t154 79t165 32v-96q0 -10 -38 -45t-101 -84t-141 -103t-156 -99t-149 -74t-121 -29q-72 0 -128 69t-98 183q0 -50 -2 -95t-6 -81q-46 0 -76 9t-44 41q-6 16 -6 63t5 109t11 132t11 133t5 110t-6 63q-70 10 -106 23t-67 25 t-72 24t-119 24h-20q-72 -310 -127 -490t-92 -257t-58 -63t-27 93zM414 1022q2 -44 36 -72t93 -43t131 -15q0 80 4 174t2 189t-17 184t-53 159q-22 -22 -44 -82t-44 -133t-40 -144t-26 -115q-44 -58 -42 -102z" />
<glyph unicode="&#xc7;" horiz-adv-x="1286" d="M40 686q0 68 19 148t53 161t82 158t108 136t130 94t148 35q64 0 120 -17t96 -51t63 -85t23 -121q-44 0 -71 23t-50 51t-50 50t-69 22q-62 0 -119 -32t-106 -86t-86 -122t-64 -137t-42 -135t-15 -114q0 -104 31 -195t89 -158t144 -105t196 -38q70 0 133 21t122 46t117 47 t116 22q8 0 23 -1t28 -5t23 -13t10 -27q0 -72 -55 -122t-131 -81t-158 -45t-134 -14q-86 0 -162 14q2 -22 -12 -40q0 -64 23 -95t59 -43t82 -10t96 5t97 2t83 -18t58 -56t22 -113q0 -48 -47 -120t-119 -139t-153 -115t-149 -48q-40 0 -54 30t-14 62q30 22 76 51t94 59t91 64 t67 64t25 60t-37 54q-94 0 -180 -5t-151 18t-103 89t-38 206q-6 60 4 96q-96 46 -172 116q-98 90 -154 217t-56 285z" />
<glyph unicode="&#xc8;" horiz-adv-x="1328" d="M-4 1646q0 28 22 48t51 33t57 20t44 9h24h20q48 -4 122 -12t157 -17t168 -18t154 -18t116 -14t55 -5q16 -2 41 -7t51 -16t48 -26t32 -37q-16 -32 -28 -49t-26 -26t-29 -9h-37q-84 0 -169 6t-169 12t-169 12t-171 6q0 -36 -9 -108t-14 -152t4 -159t45 -133q70 42 146 44 t154 2h86t101 -12t83 -40t34 -84q0 -40 -16 -60t-74 -20q-6 0 -25 6t-40 14t-39 14t-24 6q-2 0 -15 1t-31 1t-35 1t-27 1q-46 0 -89 -6t-75 -24t-51 -52t-19 -88q0 -18 4 -62t11 -97t19 -109t32 -103t45 -78t61 -31q4 0 20 2t20 2q68 46 137 100t143 101t154 80t166 33v-98 q0 -8 -39 -44t-102 -84t-141 -102t-156 -99t-149 -75t-119 -30q-68 0 -121 61t-95 162t-70 233t-49 272t-34 279t-21 257t-11 205t-5 121q-10 0 -29 5t-39 12t-38 14t-24 11q-2 4 -2 8q-2 4 -2 10zM404 2144q8 40 26 51t41 3t50 -33t55 -57t54 -68t46 -68q2 -2 9 -12t13 -16 q22 -26 21 -53t-14 -45t-38 -20t-47 22z" />
<glyph unicode="&#xc9;" horiz-adv-x="1328" d="M-4 1646q0 28 22 48t51 33t57 20t44 9h24h20q48 -4 122 -12t157 -17t168 -18t154 -18t116 -14t55 -5q16 -2 41 -7t51 -16t48 -26t32 -37q-16 -32 -28 -49t-26 -26t-29 -9h-37q-84 0 -169 6t-169 12t-169 12t-171 6q0 -36 -9 -108t-14 -152t4 -159t45 -133q70 42 146 44 t154 2h86t101 -12t83 -40t34 -84q0 -40 -16 -60t-74 -20q-6 0 -25 6t-40 14t-39 14t-24 6q-2 0 -15 1t-31 1t-35 1t-27 1q-46 0 -89 -6t-75 -24t-51 -52t-19 -88q0 -18 4 -62t11 -97t19 -109t32 -103t45 -78t61 -31q4 0 20 2t20 2q68 46 137 100t143 101t154 80t166 33v-98 q0 -8 -39 -44t-102 -84t-141 -102t-156 -99t-149 -75t-119 -30q-68 0 -121 61t-95 162t-70 233t-49 272t-34 279t-21 257t-11 205t-5 121q-10 0 -29 5t-39 12t-38 14t-24 11q-2 4 -2 8q-2 4 -2 10zM439 1877q-1 29 21 57q6 6 13 17t9 15q20 32 46 72t54 75t55 62t51 36 t41 -4t25 -57l-216 -320q-24 -28 -48 -24t-37 23t-14 48z" />
<glyph unicode="&#xca;" horiz-adv-x="1328" d="M-4 1646q0 28 22 48t51 33t57 20t44 9h24h20q48 -4 122 -12t157 -17t168 -18t154 -18t116 -14t55 -5q16 -2 41 -7t51 -16t48 -26t32 -37q-16 -32 -28 -49t-26 -26t-29 -9h-37q-84 0 -169 6t-169 12t-169 12t-171 6q0 -36 -9 -108t-14 -152t4 -159t45 -133q70 42 146 44 t154 2h86t101 -12t83 -40t34 -84q0 -40 -16 -60t-74 -20q-6 0 -25 6t-40 14t-39 14t-24 6q-2 0 -15 1t-31 1t-35 1t-27 1q-46 0 -89 -6t-75 -24t-51 -52t-19 -88q0 -18 4 -62t11 -97t19 -109t32 -103t45 -78t61 -31q4 0 20 2t20 2q68 46 137 100t143 101t154 80t166 33v-98 q0 -8 -39 -44t-102 -84t-141 -102t-156 -99t-149 -75t-119 -30q-68 0 -121 61t-95 162t-70 233t-49 272t-34 279t-21 257t-11 205t-5 121q-10 0 -29 5t-39 12t-38 14t-24 11q-2 4 -2 8q-2 4 -2 10zM280 1866q0 38 13 96t36 124t54 136t67 130t77 105t81 63q40 -22 82 -64 t85 -95t84 -112t79 -113t71 -100t55 -70q-2 -4 -12 -16t-24 -25t-28 -27t-22 -20h-8q-6 -2 -12 -2q-8 0 -14 2h-8q-60 40 -92 95t-60 104t-64 83t-102 34q-42 -102 -66 -166t-40 -100t-30 -51t-37 -17t-62 2t-103 4z" />
<glyph unicode="&#xcb;" horiz-adv-x="1328" d="M-4 1646q0 28 22 48t51 33t57 20t44 9h24h20q48 -4 122 -12t157 -17t168 -18t154 -18t116 -14t55 -5q16 -2 41 -7t51 -16t48 -26t32 -37q-16 -32 -28 -49t-26 -26t-29 -9h-37q-84 0 -169 6t-169 12t-169 12t-171 6q0 -36 -9 -108t-14 -152t4 -159t45 -133q70 42 146 44 t154 2h86t101 -12t83 -40t34 -84q0 -40 -16 -60t-74 -20q-6 0 -25 6t-40 14t-39 14t-24 6q-2 0 -15 1t-31 1t-35 1t-27 1q-46 0 -89 -6t-75 -24t-51 -52t-19 -88q0 -18 4 -62t11 -97t19 -109t32 -103t45 -78t61 -31q4 0 20 2t20 2q68 46 137 100t143 101t154 80t166 33v-98 q0 -8 -39 -44t-102 -84t-141 -102t-156 -99t-149 -75t-119 -30q-68 0 -121 61t-95 162t-70 233t-49 272t-34 279t-21 257t-11 205t-5 121q-10 0 -29 5t-39 12t-38 14t-24 11q-2 4 -2 8q-2 4 -2 10zM308 1940q-2 30 22 59t84 43q90 0 90 -94q-22 -58 -55 -78t-63 -14t-53 30 t-25 54zM762 1940q-2 30 21 59t85 43q90 0 90 -94q-24 -58 -56 -78t-63 -14t-53 30t-24 54z" />
<glyph unicode="&#xcc;" horiz-adv-x="1542" d="M26 1264v46t6 61t18 56t36 31h1100q-2 -64 -26 -98t-63 -52t-87 -23t-96 -11t-94 -15t-79 -35t-50 -71t-9 -121q0 -42 6 -111t20 -149t36 -161t55 -148t76 -108t101 -41q40 -4 103 -1t127 5t121 -2t83 -24t12 -59t-88 -105q-128 -48 -259 -65t-263 -18t-264 4t-262 5 q-74 90 -88 138t11 67t80 20t119 -4t128 -8t106 11q0 106 -26 230t-56 254t-58 259t-30 243h-446zM594 1900q8 40 26 51t41 3t50 -33t55 -57t54 -68t46 -68q2 -2 9 -12t13 -16q22 -26 21 -53t-14 -45t-38 -20t-47 22z" />
<glyph unicode="&#xcd;" horiz-adv-x="1542" d="M26 1264v46t6 61t18 56t36 31h1100q-2 -64 -26 -98t-63 -52t-87 -23t-96 -11t-94 -15t-79 -35t-50 -71t-9 -121q0 -42 6 -111t20 -149t36 -161t55 -148t76 -108t101 -41q40 -4 103 -1t127 5t121 -2t83 -24t12 -59t-88 -105q-128 -48 -259 -65t-263 -18t-264 4t-262 5 q-74 90 -88 138t11 67t80 20t119 -4t128 -8t106 11q0 106 -26 230t-56 254t-58 259t-30 243h-446zM631 1593q-1 29 21 57q6 6 13 17t9 15q20 32 46 72t54 75t55 62t51 36t41 -4t25 -57l-216 -320q-24 -28 -48 -24t-37 23t-14 48z" />
<glyph unicode="&#xce;" horiz-adv-x="1542" d="M26 1264v46t6 61t18 56t36 31h1100q-2 -64 -26 -98t-63 -52t-87 -23t-96 -11t-94 -15t-79 -35t-50 -71t-9 -121q0 -42 6 -111t20 -149t36 -161t55 -148t76 -108t101 -41q40 -4 103 -1t127 5t121 -2t83 -24t12 -59t-88 -105q-128 -48 -259 -65t-263 -18t-264 4t-262 5 q-74 90 -88 138t11 67t80 20t119 -4t128 -8t106 11q0 106 -26 230t-56 254t-58 259t-30 243h-446zM378 1696q0 38 13 96t36 124t54 136t67 130t77 105t81 63q40 -22 82 -64t85 -95t84 -112t79 -113t71 -100t55 -70q-2 -4 -12 -16t-24 -25t-28 -27t-22 -20h-8q-6 -2 -12 -2 q-8 0 -14 2h-8q-60 40 -92 95t-60 104t-64 83t-102 34q-42 -102 -66 -166t-40 -100t-30 -51t-37 -17t-62 2t-103 4z" />
<glyph unicode="&#xcf;" horiz-adv-x="1542" d="M26 1264v46t6 61t18 56t36 31h1100q-2 -64 -26 -98t-63 -52t-87 -23t-96 -11t-94 -15t-79 -35t-50 -71t-9 -121q0 -42 6 -111t20 -149t36 -161t55 -148t76 -108t101 -41q40 -4 103 -1t127 5t121 -2t83 -24t12 -59t-88 -105q-128 -48 -259 -65t-263 -18t-264 4t-262 5 q-74 90 -88 138t11 67t80 20t119 -4t128 -8t106 11q0 106 -26 230t-56 254t-58 259t-30 243h-446zM348 1730q-2 30 22 59t84 43q90 0 90 -94q-22 -58 -55 -78t-63 -14t-53 30t-25 54zM802 1730q-2 30 21 59t85 43q90 0 90 -94q-24 -58 -56 -78t-63 -14t-53 30t-24 54z" />
<glyph unicode="&#xd0;" horiz-adv-x="1018" d="M0 774q48 -14 112 -6l40 8l-20 86q-30 116 -52 214t-35 172t-13 108q0 84 50 138t123 85t157 42t152 11q130 0 219 -51t144 -135t79 -194t24 -224q0 -76 -16 -179t-47 -212t-78 -216t-110 -192t-140 -137t-169 -52q-16 0 -43 49t-57 131t-63 189t-65 223l-10 32h-12 q-66 -8 -110 -9t-42 3q0 2 -3 20t-6 39t-6 38t-3 19zM202 1242q0 -64 9 -146t27 -170q14 -64 32 -128q50 6 96 12q60 6 102 -18q42 -22 25 -42t-69 -38q-48 -16 -116 -28q22 -52 44 -102q38 -78 87 -141t109 -99q66 96 115 172t82 152t49 162t16 200q0 82 -11 160t-43 139 t-93 98t-157 37q-82 0 -156 -25t-144 -65q0 -6 -1 -24t-1 -39t-1 -40t-1 -27z" />
<glyph unicode="&#xd1;" horiz-adv-x="1372" d="M-8 1810q0 66 12 139t44 134t89 101t147 40q64 0 111 -29t84 -72t69 -94t68 -95t79 -72t101 -28q68 0 99 20t41 53t7 73t-3 79t9 70t43 49h40q6 -2 19 -7t26 -11t26 -13t17 -9q0 -8 1 -23t1 -32t1 -33t1 -20q0 -176 -92 -275t-264 -99q-66 0 -114 26t-85 66t-67 87 t-62 86t-69 66t-87 27q-64 0 -91 -25t-37 -63t-10 -84t-6 -90t-25 -79t-65 -51l-46 42q0 6 -2 25t-4 39l-4 46q-2 24 -2 36zM-6 758q0 18 4 62t12 92l15 90t13 58q6 2 21 2t32 2t32 3t21 1q96 0 182 -38t164 -96t152 -130t149 -140t153 -123t166 -83q0 10 1 31t1 45t1 45 t1 31q0 126 -16 246t-36 240t-36 241t-16 249q14 0 35 -1t43 -6t40 -16t24 -33q8 -144 36 -289t58 -290t53 -290t23 -287q0 -26 -1 -56t-8 -57t-23 -45t-48 -18q-104 0 -192 47t-171 117t-162 154t-162 154t-172 118t-191 48q0 -112 16 -215t35 -205t35 -203t16 -205 q0 -38 -27 -52t-59 -14q-26 0 -49 5t-35 41q-8 32 -21 92t-28 132t-29 151t-26 154t-19 138t-7 103z" />
<glyph unicode="&#xd2;" horiz-adv-x="1286" d="M0 556q0 102 27 207t76 201t119 179t155 144t185 96t210 35t191 -43t135 -115t80 -165t26 -189q0 -168 -50 -331t-148 -292t-243 -208t-333 -79q-112 0 -193 51t-134 132t-78 180t-25 197zM170 512q0 -54 18 -114t50 -110t81 -84t111 -34q134 0 244 61t190 158t124 217 t44 238q0 68 -4 140t-26 131t-69 96t-135 37q-28 0 -75 -2t-93 -11t-81 -27t-35 -50q0 -4 7 -17t15 -27t14 -27t6 -17t-16 -21t-26 -21q-100 -26 -167 -65t-106 -101t-55 -148t-16 -202zM466 1900q8 40 26 51t41 3t50 -33t55 -57t54 -68t46 -68q2 -2 9 -12t13 -16 q22 -26 21 -53t-14 -45t-38 -20t-47 22z" />
<glyph unicode="&#xd3;" horiz-adv-x="1286" d="M0 556q0 102 27 207t76 201t119 179t155 144t185 96t210 35t191 -43t135 -115t80 -165t26 -189q0 -168 -50 -331t-148 -292t-243 -208t-333 -79q-112 0 -193 51t-134 132t-78 180t-25 197zM170 512q0 -54 18 -114t50 -110t81 -84t111 -34q134 0 244 61t190 158t124 217 t44 238q0 68 -4 140t-26 131t-69 96t-135 37q-28 0 -75 -2t-93 -11t-81 -27t-35 -50q0 -4 7 -17t15 -27t14 -27t6 -17t-16 -21t-26 -21q-100 -26 -167 -65t-106 -101t-55 -148t-16 -202zM503 1593q-1 29 21 57q6 6 13 17t9 15q20 32 46 72t54 75t55 62t51 36t41 -4t25 -57 l-216 -320q-24 -28 -48 -24t-37 23t-14 48z" />
<glyph unicode="&#xd4;" horiz-adv-x="1286" d="M0 556q0 102 27 207t76 201t119 179t155 144t185 96t210 35t191 -43t135 -115t80 -165t26 -189q0 -168 -50 -331t-148 -292t-243 -208t-333 -79q-112 0 -193 51t-134 132t-78 180t-25 197zM170 512q0 -54 18 -114t50 -110t81 -84t111 -34q134 0 244 61t190 158t124 217 t44 238q0 68 -4 140t-26 131t-69 96t-135 37q-28 0 -75 -2t-93 -11t-81 -27t-35 -50q0 -4 7 -17t15 -27t14 -27t6 -17t-16 -21t-26 -21q-100 -26 -167 -65t-106 -101t-55 -148t-16 -202zM252 1696q0 38 13 96t36 124t54 136t67 130t77 105t81 63q40 -22 82 -64t85 -95 t84 -112t79 -113t71 -100t55 -70q-2 -4 -12 -16t-24 -25t-28 -27t-22 -20h-8q-6 -2 -12 -2q-8 0 -14 2h-8q-60 40 -92 95t-60 104t-64 83t-102 34q-42 -102 -66 -166t-40 -100t-30 -51t-37 -17t-62 2t-103 4z" />
<glyph unicode="&#xd5;" horiz-adv-x="1286" d="M0 556q0 102 27 207t76 201t119 179t155 144t185 96t210 35t191 -43t135 -115t80 -165t26 -189q0 -168 -50 -331t-148 -292t-243 -208t-333 -79q-112 0 -193 51t-134 132t-78 180t-25 197zM96 1706q0 66 12 139t44 134t89 101t147 40q64 0 111 -29t84 -72t69 -94t68 -95 t79 -72t101 -28q68 0 99 20t41 53t7 73t-3 79t9 70t43 49h40q6 -2 19 -7t26 -11t26 -13t17 -9q0 -8 1 -23t1 -32t1 -33t1 -20q0 -176 -92 -275t-264 -99q-66 0 -114 26t-85 66t-67 87t-62 86t-69 66t-87 27q-64 0 -91 -25t-37 -63t-10 -84t-6 -90t-25 -79t-65 -51l-46 42 q0 6 -2 25t-4 39l-4 46q-2 24 -2 36zM170 512q0 -54 18 -114t50 -110t81 -84t111 -34q134 0 244 61t190 158t124 217t44 238q0 68 -4 140t-26 131t-69 96t-135 37q-28 0 -75 -2t-93 -11t-81 -27t-35 -50q0 -4 7 -17t15 -27t14 -27t6 -17t-16 -21t-26 -21q-100 -26 -167 -65 t-106 -101t-55 -148t-16 -202z" />
<glyph unicode="&#xd6;" horiz-adv-x="1286" d="M0 556q0 102 27 207t76 201t119 179t155 144t185 96t210 35t191 -43t135 -115t80 -165t26 -189q0 -168 -50 -331t-148 -292t-243 -208t-333 -79q-112 0 -193 51t-134 132t-78 180t-25 197zM170 512q0 -54 18 -114t50 -110t81 -84t111 -34q134 0 244 61t190 158t124 217 t44 238q0 68 -4 140t-26 131t-69 96t-135 37q-28 0 -75 -2t-93 -11t-81 -27t-35 -50q0 -4 7 -17t15 -27t14 -27t6 -17t-16 -21t-26 -21q-100 -26 -167 -65t-106 -101t-55 -148t-16 -202zM390 1854q-2 30 22 59t84 43q90 0 90 -94q-22 -58 -55 -78t-63 -14t-53 30t-25 54z M844 1854q-2 30 21 59t85 43q90 0 90 -94q-24 -58 -56 -78t-63 -14t-53 30t-24 54z" />
<glyph unicode="&#xd7;" horiz-adv-x="972" d="M210 926v4q0 6 2 8q6 20 27 22t43 -8q2 0 14 -4l8 -4l146 -168q62 38 98 58t56 29t29 9t13 -2q18 -4 43 -13t25 -31q-54 -24 -97 -51t-89 -79q20 -22 48 -57t58 -76t56 -83t42 -77t18 -57t-18 -22q-24 -12 -33 -19t-15 -2t-13 24t-28 57t-60 98t-107 148l-84 -244 q-2 -2 -18 -6l-26 -4q-4 0 -8 2h-6l-2 2l-2 1t-6 1t-6 2q-4 6 -13 16t-9 12l82 280z" />
<glyph unicode="&#xd8;" horiz-adv-x="1286" d="M0 556q0 102 27 207t76 201t119 179t155 144t185 96t210 35h10q26 34 54 60q66 58 142 28q-14 -64 -28 -126q6 -4 12 -4q82 -44 136 -116t80 -165t26 -189q0 -168 -50 -331t-148 -292t-244 -207q-102 -56 -222 -72q-8 -64 -28 -74q-24 -12 -54 -2q-24 8 -42 24 q-16 12 -22 46q-90 6 -156 48q-82 52 -135 133t-78 180t-25 197zM170 512q0 -54 18 -114t50 -110t80 -84q44 -32 100 -34q8 50 15 93t9 61q14 68 37 191t58 264t81 283q30 98 66 180q-28 -2 -54 -8q-46 -8 -81 -26t-35 -50q0 -4 7 -17t15 -27t14 -27t6 -17t-16 -21t-26 -21 q-100 -26 -167 -65t-106 -101t-55 -148t-16 -202zM570 188q54 16 104 42q110 62 190 159t124 217t44 238q0 68 -4 140t-26 131t-70 95q-10 8 -24 14q-34 -114 -72 -222q-40 -116 -83 -231t-84 -235t-75 -250q-10 -46 -24 -98z" />
<glyph unicode="&#xd9;" horiz-adv-x="1242" d="M0 1286l86 86q32 -24 52 -59t32 -71q2 -76 2 -182t8 -220t30 -227t69 -203t126 -145t199 -55q110 0 189 52t132 132t78 179t25 193q0 182 -18 371t-66 365q14 36 36 41t48 5q52 0 82 -42t45 -107t18 -142t0 -146t-8 -122t-5 -67q0 -104 -5 -211t-24 -205t-56 -183 t-99 -148t-154 -99t-220 -36q-162 0 -266 62t-167 165t-94 235t-44 270t-18 272t-13 242zM444 1900q8 40 26 51t41 3t50 -33t55 -57t54 -68t46 -68q2 -2 9 -12t13 -16q22 -26 21 -53t-14 -45t-38 -20t-47 22z" />
<glyph unicode="&#xda;" horiz-adv-x="1242" d="M0 1286l86 86q32 -24 52 -59t32 -71q2 -76 2 -182t8 -220t30 -227t69 -203t126 -145t199 -55q110 0 189 52t132 132t78 179t25 193q0 182 -18 371t-66 365q14 36 36 41t48 5q52 0 82 -42t45 -107t18 -142t0 -146t-8 -122t-5 -67q0 -104 -5 -211t-24 -205t-56 -183 t-99 -148t-154 -99t-220 -36q-162 0 -266 62t-167 165t-94 235t-44 270t-18 272t-13 242zM481 1593q-1 29 21 57q6 6 13 17t9 15q20 32 46 72t54 75t55 62t51 36t41 -4t25 -57l-216 -320q-24 -28 -48 -24t-37 23t-14 48z" />
<glyph unicode="&#xdb;" horiz-adv-x="1242" d="M0 1286l86 86q32 -24 52 -59t32 -71q2 -76 2 -182t8 -220t30 -227t69 -203t126 -145t199 -55q110 0 189 52t132 132t78 179t25 193q0 182 -18 371t-66 365q14 36 36 41t48 5q52 0 82 -42t45 -107t18 -142t0 -146t-8 -122t-5 -67q0 -104 -5 -211t-24 -205t-56 -183 t-99 -148t-154 -99t-220 -36q-162 0 -266 62t-167 165t-94 235t-44 270t-18 272t-13 242zM228 1696q0 38 13 96t36 124t54 136t67 130t77 105t81 63q40 -22 82 -64t85 -95t84 -112t79 -113t71 -100t55 -70q-2 -4 -12 -16t-24 -25t-28 -27t-22 -20h-8q-6 -2 -12 -2 q-8 0 -14 2h-8q-60 40 -92 95t-60 104t-64 83t-102 34q-42 -102 -66 -166t-40 -100t-30 -51t-37 -17t-62 2t-103 4z" />
<glyph unicode="&#xdc;" horiz-adv-x="1242" d="M0 1286l86 86q32 -24 52 -59t32 -71q2 -76 2 -182t8 -220t30 -227t69 -203t126 -145t199 -55q110 0 189 52t132 132t78 179t25 193q0 182 -18 371t-66 365q14 36 36 41t48 5q52 0 82 -42t45 -107t18 -142t0 -146t-8 -122t-5 -67q0 -104 -5 -211t-24 -205t-56 -183 t-99 -148t-154 -99t-220 -36q-162 0 -266 62t-167 165t-94 235t-44 270t-18 272t-13 242zM368 1854q-2 30 22 59t84 43q90 0 90 -94q-22 -58 -55 -78t-63 -14t-53 30t-25 54zM822 1854q-2 30 21 59t85 43q90 0 90 -94q-24 -58 -56 -78t-63 -14t-53 30t-24 54z" />
<glyph unicode="&#xdd;" horiz-adv-x="1286" d="M26 1924q0 10 1 24t4 27t13 22t26 9q50 0 86 -35t66 -93t56 -132t53 -150t57 -150t67 -132t85 -93t110 -35q4 0 11 2t11 2q56 50 101 133t83 179t74 198t75 190t82 154t99 92l86 -88q16 -16 5 -65t-38 -122t-67 -162t-84 -185t-88 -191t-79 -179t-57 -150t-22 -104 q0 -120 35 -232t75 -223t74 -222t34 -227v-41t-7 -47t-26 -34t-55 -2q-74 108 -130 245t-96 285t-59 299t-15 287q-78 16 -156 72t-149 136t-134 178t-109 198t-72 194t-26 168zM543 2177q-1 29 21 57q6 6 13 17t9 15q20 32 46 72t54 75t55 62t51 36t41 -4t25 -57l-216 -320 q-24 -28 -48 -24t-37 23t-14 48z" />
<glyph unicode="&#xde;" horiz-adv-x="1154" d="M70 1586q20 38 64 72t90 34q20 -106 28 -186t9 -145t0 -122t3 -116t17 -128t39 -159q4 50 5 106t10 115t30 114t60 96t102 66t159 23q86 0 155 -33t116 -88t72 -128t25 -155q0 -110 -55 -215t-143 -189t-198 -135t-224 -51q-8 0 -9 -25t0 -62t4 -81t5 -81t1 -62t-7 -23 q-8 2 -38 0t-63 -2t-62 -1t-37 3l-52 532q0 6 -4 53t-12 118t-17 160t-19 181t-20 181t-17 160t-12 118t-5 55zM450 580q4 0 20 -3t22 -3q54 0 124 33t135 85t113 113t58 117q4 34 -15 78t-52 84t-73 67t-74 27q-40 -18 -83 -48t-80 -93t-63 -171t-32 -286z" />
<glyph unicode="&#xdf;" horiz-adv-x="1208" d="M66 1107q-2 135 1 237t9 148q28 118 94 181t147 84t169 3t164 -66t130 -120t65 -159t-27 -186t-146 -197q74 -26 153 -53t145 -66t109 -93t43 -134q0 -54 -26 -114t-71 -121t-103 -121t-120 -112t-125 -95t-117 -69l-36 258l72 48q42 30 90 66t96 74t87 73t62 65t23 48 q0 86 -50 141t-125 71t-165 -9t-172 -95l-6 208q94 72 147 160t67 172t-8 153t-76 100t-140 16t-198 -99q14 -88 10 -193t-9 -230t-6 -272t13 -315t52 -360t112 -408l-182 -42q-24 2 -44 71t-36 182t-28 259t-21 303t-15 315t-8 293z" />
<glyph unicode="&#xe0;" horiz-adv-x="1242" d="M40 434q0 76 20 158t59 163t93 154t122 129t145 89t163 33q144 -14 226 -71t124 -146t58 -198t25 -225t23 -232t58 -214q-26 -66 -49 -93t-51 -9t-65 88t-91 198q-76 -52 -131 -93t-107 -69t-111 -42t-145 -14q-186 0 -276 99t-90 295zM210 430q0 -114 43 -167t153 -53 q82 0 157 29t131 80t90 123t34 160q0 36 2 101t-8 129t-38 111t-84 47q-104 0 -192 -53t-152 -135t-100 -181t-36 -191zM434 1598q8 40 26 51t41 3t50 -33t55 -57t54 -68t46 -68q2 -2 9 -12t13 -16q22 -26 21 -53t-14 -45t-38 -20t-47 22z" />
<glyph unicode="&#xe1;" horiz-adv-x="1242" d="M40 434q0 76 20 158t59 163t93 154t122 129t145 89t163 33q144 -14 226 -71t124 -146t58 -198t25 -225t23 -232t58 -214q-26 -66 -49 -93t-51 -9t-65 88t-91 198q-76 -52 -131 -93t-107 -69t-111 -42t-145 -14q-186 0 -276 99t-90 295zM210 430q0 -114 43 -167t153 -53 q82 0 157 29t131 80t90 123t34 160q0 36 2 101t-8 129t-38 111t-84 47q-104 0 -192 -53t-152 -135t-100 -181t-36 -191zM473 1385q-1 29 21 57q6 6 13 17t9 15q20 32 46 72t54 75t55 62t51 36t41 -4t25 -57l-216 -320q-24 -28 -48 -24t-37 23t-14 48z" />
<glyph unicode="&#xe2;" horiz-adv-x="1242" d="M40 434q0 76 20 158t59 163t93 154t122 129t145 89t163 33q144 -14 226 -71t124 -146t58 -198t25 -225t23 -232t58 -214q-26 -66 -49 -93t-51 -9t-65 88t-91 198q-76 -52 -131 -93t-107 -69t-111 -42t-145 -14q-186 0 -276 99t-90 295zM210 430q0 -114 43 -167t153 -53 q82 0 157 29t131 80t90 123t34 160q0 36 2 101t-8 129t-38 111t-84 47q-104 0 -192 -53t-152 -135t-100 -181t-36 -191zM228 1310q0 38 13 96t36 124t54 136t67 130t77 105t81 63q40 -22 82 -64t85 -95t84 -112t79 -113t71 -100t55 -70q-2 -4 -12 -16t-24 -25t-28 -27 t-22 -20h-8q-6 -2 -12 -2q-8 0 -14 2h-8q-60 40 -92 95t-60 104t-64 83t-102 34q-42 -102 -66 -166t-40 -100t-30 -51t-37 -17t-62 2t-103 4z" />
<glyph unicode="&#xe3;" horiz-adv-x="1242" d="M40 434q0 76 20 158t59 163t93 154t122 129t145 89t163 33q144 -14 226 -71t124 -146t58 -198t25 -225t23 -232t58 -214q-26 -66 -49 -93t-51 -9t-65 88t-91 198q-76 -52 -131 -93t-107 -69t-111 -42t-145 -14q-186 0 -276 99t-90 295zM74 1364q0 66 12 139t44 134 t89 101t147 40q64 0 111 -29t84 -72t69 -94t68 -95t79 -72t101 -28q68 0 99 20t41 53t7 73t-3 79t9 70t43 49h40q6 -2 19 -7t26 -11t26 -13t17 -9q0 -8 1 -23t1 -32t1 -33t1 -20q0 -176 -92 -275t-264 -99q-66 0 -114 26t-85 66t-67 87t-62 86t-69 66t-87 27q-64 0 -91 -25 t-37 -63t-10 -84t-6 -90t-25 -79t-65 -51l-46 42q0 6 -2 25t-4 39l-4 46q-2 24 -2 36zM210 430q0 -114 43 -167t153 -53q82 0 157 29t131 80t90 123t34 160q0 36 2 101t-8 129t-38 111t-84 47q-104 0 -192 -53t-152 -135t-100 -181t-36 -191z" />
<glyph unicode="&#xe4;" horiz-adv-x="1242" d="M40 434q0 76 20 158t59 163t93 154t122 129t145 89t163 33q144 -14 226 -71t124 -146t58 -198t25 -225t23 -232t58 -214q-26 -66 -49 -93t-51 -9t-65 88t-91 198q-76 -52 -131 -93t-107 -69t-111 -42t-145 -14q-186 0 -276 99t-90 295zM210 430q0 -114 43 -167t153 -53 q82 0 157 29t131 80t90 123t34 160q0 36 2 101t-8 129t-38 111t-84 47q-104 0 -192 -53t-152 -135t-100 -181t-36 -191zM368 1468q-2 30 22 59t84 43q90 0 90 -94q-22 -58 -55 -78t-63 -14t-53 30t-25 54zM822 1468q-2 30 21 59t85 43q90 0 90 -94q-24 -58 -56 -78t-63 -14 t-53 30t-24 54z" />
<glyph unicode="&#xe5;" horiz-adv-x="1242" d="M40 434q0 76 20 158t59 163t93 154t122 129t144 88l2 2q-24 6 -44 14q-40 18 -65 50t-36 74t-11 92q0 70 35 129t92 102t130 68t147 25q38 0 71 -25t54 -60t33 -74t12 -71q0 -62 -32 -121t-84 -105q-50 -42 -108 -68q122 -18 194 -70q82 -56 124 -145t58 -198t25 -225 t23 -232t58 -214q-26 -66 -49 -93t-51 -9t-65 88t-91 198q-76 -52 -131 -93t-107 -69t-111 -42t-145 -14q-186 0 -276 99t-90 295zM210 430q0 -114 43 -167t153 -53q82 0 157 29t131 80t90 123t34 160q0 36 2 101t-8 129t-38 111t-84 47q-104 0 -192 -53t-152 -135 t-100 -181t-36 -191zM474 1354q0 -30 1 -50t10 -34t27 -21t54 -7q90 0 144 49t54 129q0 18 -5 42t-14 47t-26 38t-41 15q-32 0 -68 -23t-67 -57t-50 -70t-19 -58z" />
<glyph unicode="&#xe6;" horiz-adv-x="2010" d="M40 434q0 76 20 158t59 163t93 154t122 129t145 89t163 33q96 -8 163 -38t113 -75t73 -104t43 -127q24 68 63 127t92 104t123 70t156 25q74 0 131 -27t95 -71t57 -103t19 -123q0 -102 -48 -198t-127 -169t-180 -110t-207 -17q2 -58 39 -93t89 -53t109 -23t97 -5 q46 0 87 8t81 18t80 18t86 8q18 0 37 -2t35 -9t26 -22t10 -37q0 -38 -28 -63t-71 -43t-96 -27t-102 -14t-90 -6t-59 -1q-130 0 -233 39t-171 115q8 -30 22 -58q-26 -66 -49 -93t-51 -9t-65 88t-91 198q-76 -52 -131 -93t-107 -69t-111 -42t-145 -14q-186 0 -276 99t-90 295z M210 430q0 -114 43 -167t153 -53q82 0 157 29t131 80t90 123t34 160q0 36 2 101t-8 129t-38 111t-84 47q-104 0 -192 -53t-152 -135t-100 -181t-36 -191zM1204 668q0 -36 4 -61t15 -42t33 -24t58 -7q52 0 102 19t91 52t66 80t25 101q0 30 -6 62t-21 59t-41 44t-64 17 q-62 0 -111 -27t-82 -70t-51 -96t-18 -107z" />
<glyph unicode="&#xe7;" horiz-adv-x="944" d="M0 602q0 84 37 176t99 167t143 125t171 50q46 0 92 -16t83 -46t60 -72t23 -94q-36 0 -65 8t-57 19t-55 19t-59 8q-82 0 -133 -41t-81 -103t-41 -133t-11 -133q0 -10 1 -38t2 -59t2 -59t3 -38q22 -48 43 -74t45 -39t52 -16t66 -3q52 0 91 16t73 38t64 49t63 50t72 38 t89 15q0 -86 -28 -158t-81 -125t-124 -86t-155 -43q10 -32 -8 -54q0 -64 22 -95t59 -43t84 -10t95 5t95 3t84 -18t60 -57t23 -113q0 -32 -23 -75t-60 -90t-85 -92t-101 -81t-105 -59t-94 -23t-56 29t-14 61q32 22 78 51t93 59t90 63t68 64t26 61t-37 54q-64 0 -123 -3 t-112 0t-96 17t-75 48t-50 94t-18 154q-2 40 0 68q-72 32 -129 101t-95 153t-59 170t-21 156z" />
<glyph unicode="&#xe8;" horiz-adv-x="1116" d="M40 556q0 108 26 216t83 194t148 140t221 54q74 0 130 -27t94 -71t57 -103t19 -123q0 -102 -47 -198t-126 -169t-181 -110t-208 -17q2 -58 39 -93t89 -53t108 -23t100 -5q46 0 86 8t80 18t81 18t87 8q18 0 36 -2t34 -9t26 -22t10 -37q0 -38 -28 -63t-71 -43t-95 -27 t-101 -14t-90 -6t-61 -1q-128 0 -230 41t-172 114t-107 176t-37 229zM252 686q0 -70 19 -102t93 -32q52 0 102 19t91 53t65 80t24 100q0 30 -5 62t-21 59t-41 44t-65 17q-60 0 -109 -27t-83 -70t-52 -96t-18 -107zM380 1514q8 40 26 51t41 3t50 -33t55 -57t54 -68t46 -68 q2 -2 9 -12t13 -16q22 -26 21 -53t-14 -45t-38 -20t-47 22z" />
<glyph unicode="&#xe9;" horiz-adv-x="1116" d="M40 556q0 108 26 216t83 194t148 140t221 54q74 0 130 -27t94 -71t57 -103t19 -123q0 -102 -47 -198t-126 -169t-181 -110t-208 -17q2 -58 39 -93t89 -53t108 -23t100 -5q46 0 86 8t80 18t81 18t87 8q18 0 36 -2t34 -9t26 -22t10 -37q0 -38 -28 -63t-71 -43t-95 -27 t-101 -14t-90 -6t-61 -1q-128 0 -230 41t-172 114t-107 176t-37 229zM252 686q0 -70 19 -102t93 -32q52 0 102 19t91 53t65 80t24 100q0 30 -5 62t-21 59t-41 44t-65 17q-60 0 -109 -27t-83 -70t-52 -96t-18 -107zM261 1253q-1 29 21 57q6 6 13 17t9 15q20 32 46 72t54 75 t55 62t51 36t41 -4t25 -57l-216 -320q-24 -28 -48 -24t-37 23t-14 48z" />
<glyph unicode="&#xea;" horiz-adv-x="1116" d="M40 556q0 108 26 216t83 194t148 140t221 54q74 0 130 -27t94 -71t57 -103t19 -123q0 -102 -47 -198t-126 -169t-181 -110t-208 -17q2 -58 39 -93t89 -53t108 -23t100 -5q46 0 86 8t80 18t81 18t87 8q18 0 36 -2t34 -9t26 -22t10 -37q0 -38 -28 -63t-71 -43t-95 -27 t-101 -14t-90 -6t-61 -1q-128 0 -230 41t-172 114t-107 176t-37 229zM164 1310q0 38 13 96t36 124t54 136t67 130t77 105t81 63q40 -22 82 -64t85 -95t84 -112t79 -113t71 -100t55 -70q-2 -4 -12 -16t-24 -25t-28 -27t-22 -20h-8q-6 -2 -12 -2q-8 0 -14 2h-8q-60 40 -92 95 t-60 104t-64 83t-102 34q-42 -102 -66 -166t-40 -100t-30 -51t-37 -17t-62 2t-103 4zM252 686q0 -70 19 -102t93 -32q52 0 102 19t91 53t65 80t24 100q0 30 -5 62t-21 59t-41 44t-65 17q-60 0 -109 -27t-83 -70t-52 -96t-18 -107z" />
<glyph unicode="&#xeb;" horiz-adv-x="1116" d="M40 556q0 108 26 216t83 194t148 140t221 54q74 0 130 -27t94 -71t57 -103t19 -123q0 -102 -47 -198t-126 -169t-181 -110t-208 -17q2 -58 39 -93t89 -53t108 -23t100 -5q46 0 86 8t80 18t81 18t87 8q18 0 36 -2t34 -9t26 -22t10 -37q0 -38 -28 -63t-71 -43t-95 -27 t-101 -14t-90 -6t-61 -1q-128 0 -230 41t-172 114t-107 176t-37 229zM184 1396q-2 30 22 59t84 43q90 0 90 -94q-22 -58 -55 -78t-63 -14t-53 30t-25 54zM252 686q0 -70 19 -102t93 -32q52 0 102 19t91 53t65 80t24 100q0 30 -5 62t-21 59t-41 44t-65 17q-60 0 -109 -27 t-83 -70t-52 -96t-18 -107zM638 1396q-2 30 21 59t85 43q90 0 90 -94q-24 -58 -56 -78t-63 -14t-53 30t-24 54z" />
<glyph unicode="&#xec;" horiz-adv-x="472" d="M62 1514q6 40 24 51t42 3t51 -33t54 -57t53 -68t46 -68q2 -2 10 -12t12 -16q22 -26 21 -53t-14 -45t-38 -20t-47 22zM124 750q0 12 1 39t2 57t2 58t1 40q22 32 57 52t71 32q6 -108 34 -230t60 -245t57 -243t25 -224q0 -90 -92 -90q-56 0 -94 46t-61 117t-37 158t-19 171 t-6 154t-1 108z" />
<glyph unicode="&#xed;" horiz-adv-x="472" d="M97 1207q-1 29 19 57q6 6 13 17t9 15q20 32 46 72t54 75t56 62t51 36t41 -4t26 -57l-218 -320q-24 -28 -47 -24t-36 23t-14 48zM124 750q0 12 1 39t2 57t2 58t1 40q22 32 57 52t71 32q6 -108 34 -230t60 -245t57 -243t25 -224q0 -90 -92 -90q-56 0 -94 46t-61 117 t-37 158t-19 171t-6 154t-1 108z" />
<glyph unicode="&#xee;" horiz-adv-x="472" d="M-156 1310q0 38 13 96t36 124t54 136t67 130t77 105t79 63q40 -22 83 -64t86 -95t84 -112t79 -113t70 -100t56 -70q-2 -4 -13 -16t-24 -25t-28 -27t-21 -20h-10q-4 -2 -10 -2q-8 0 -12 2h-10q-60 40 -92 95t-59 104t-63 83t-104 34q-44 -102 -67 -166t-39 -100t-30 -51 t-37 -17t-62 2t-103 4zM124 750q0 12 1 39t2 57t2 58t1 40q22 32 57 52t71 32q6 -108 34 -230t60 -245t57 -243t25 -224q0 -90 -92 -90q-56 0 -94 46t-61 117t-37 158t-19 171t-6 154t-1 108z" />
<glyph unicode="&#xef;" horiz-adv-x="472" d="M-114 1403q-2 29 22 58t84 43q90 0 90 -92q-22 -58 -55 -78t-63 -15t-53 30t-25 54zM124 750q0 12 1 39t2 57t2 58t1 40q22 32 57 52t71 32q6 -108 34 -230t60 -245t57 -243t25 -224q0 -90 -92 -90q-56 0 -94 46t-61 117t-37 158t-19 171t-6 154t-1 108zM340 1403 q-2 29 22 58t84 43q90 0 90 -92q-24 -58 -56 -78t-63 -15t-53 30t-24 54z" />
<glyph unicode="&#xf0;" horiz-adv-x="944" d="M94 542q0 124 59 200t189 76q44 0 84 -13t79 -27t77 -27t78 -13q0 6 2 16t4 21l4 22t0 17q-4 14 -18 69t-30 123q-108 6 -212 28t-172 72q0 52 14 62t50 10q42 8 117 6t167 -8q-16 62 -26 110l-14 66v42q2 6 19 22t21 20q4 0 10 2q4 0 7 1t5 1q32 0 60 -22t52 -59t43 -90 t33 -111q58 -6 106 -10t78 -4q0 -4 2 -22t2 -26q0 -42 -17 -70t-73 -26h-66q14 -94 23 -193t15 -185t7 -152t1 -94q0 -12 -1 -38t-1 -56v-57v-37q-28 -60 -54 -94t-56 -52t-66 -24t-82 -6q-98 0 -190 46t-166 120t-119 169t-45 195zM256 520q0 -46 31 -105t78 -110t101 -86 t100 -35q36 0 56 25t32 59t16 70t4 58q0 54 -23 94t-61 67t-85 39t-99 12h-56q-26 0 -48 -7t-34 -26t-12 -55z" />
<glyph unicode="&#xf1;" horiz-adv-x="1158" d="M16 1196q0 66 12 139t44 134t89 101t147 40q64 0 111 -29t84 -72t69 -94t68 -95t79 -72t101 -28q68 0 99 20t41 53t7 73t-3 79t9 70t43 49h40q6 -2 19 -7t26 -11t26 -13t17 -9q0 -8 1 -23t1 -32t1 -33t1 -20q0 -176 -92 -275t-264 -99q-66 0 -114 26t-85 66t-67 87 t-62 86t-69 66t-87 27q-64 0 -91 -25t-37 -63t-10 -84t-6 -90t-25 -79t-65 -51l-46 42q0 6 -2 25t-4 39l-4 46q-2 24 -2 36zM40 674q0 52 26 75t84 23h20q6 -32 14 -74t24 -86t38 -81t54 -59q2 70 35 135t82 116t108 86t117 47h44q96 0 164 -43t113 -112t69 -157t37 -179 t16 -176t3 -145h-146q-12 120 -30 230q-6 44 -16 93t-22 92t-26 80t-32 63q-8 8 -21 22t-27 28t-26 24t-14 10q-60 16 -104 -23t-78 -105t-55 -150t-35 -161t-20 -134t-8 -69q-50 -36 -94 -21t-83 63t-70 120t-57 153t-47 163t-37 152z" />
<glyph unicode="&#xf2;" d="M40 406q0 124 58 231t153 184t214 121t241 44q68 0 121 -44t89 -107t55 -133t19 -122q0 -112 -54 -217t-140 -186t-194 -131t-216 -50q-96 0 -162 33t-106 88t-59 130t-19 159zM210 386q0 -52 9 -91t32 -67t61 -43t94 -15q74 0 148 41t133 104t95 139t36 148q0 32 -6 70 t-20 70t-40 54t-66 22q-36 0 -85 -24t-102 -62t-104 -86t-93 -96t-67 -92t-25 -72zM338 1514q8 40 26 51t41 3t50 -33t55 -57t54 -68t46 -68q2 -2 9 -12t13 -16q22 -26 21 -53t-14 -45t-38 -20t-47 22z" />
<glyph unicode="&#xf3;" d="M40 406q0 124 58 231t153 184t214 121t241 44q68 0 121 -44t89 -107t55 -133t19 -122q0 -112 -54 -217t-140 -186t-194 -131t-216 -50q-96 0 -162 33t-106 88t-59 130t-19 159zM210 386q0 -52 9 -91t32 -67t61 -43t94 -15q74 0 148 41t133 104t95 139t36 148q0 32 -6 70 t-20 70t-40 54t-66 22q-36 0 -85 -24t-102 -62t-104 -86t-93 -96t-67 -92t-25 -72zM375 1207q-1 29 21 57q6 6 13 17t9 15q20 32 46 72t54 75t55 62t51 36t41 -4t25 -57l-216 -320q-24 -28 -48 -24t-37 23t-14 48z" />
<glyph unicode="&#xf4;" d="M40 406q0 124 58 231t153 184t214 121t241 44q68 0 121 -44t89 -107t55 -133t19 -122q0 -112 -54 -217t-140 -186t-194 -131t-216 -50q-96 0 -162 33t-106 88t-59 130t-19 159zM122 1106q0 38 13 96t36 124t54 136t67 130t77 105t81 63q40 -22 82 -64t85 -95t84 -112 t79 -113t71 -100t55 -70q-2 -4 -12 -16t-24 -25t-28 -27t-22 -20h-8q-6 -2 -12 -2q-8 0 -14 2h-8q-60 40 -92 95t-60 104t-64 83t-102 34q-42 -102 -66 -166t-40 -100t-30 -51t-37 -17t-62 2t-103 4zM210 386q0 -52 9 -91t32 -67t61 -43t94 -15q74 0 148 41t133 104t95 139 t36 148q0 32 -6 70t-20 70t-40 54t-66 22q-36 0 -85 -24t-102 -62t-104 -86t-93 -96t-67 -92t-25 -72z" />
<glyph unicode="&#xf5;" d="M-66 1244q0 66 12 139t44 134t89 101t147 40q64 0 111 -29t84 -72t69 -94t68 -95t79 -72t101 -28q68 0 99 20t41 53t7 73t-3 79t9 70t43 49h40q6 -2 19 -7t26 -11t26 -13t17 -9q0 -8 1 -23t1 -32t1 -33t1 -20q0 -176 -92 -275t-264 -99q-66 0 -114 26t-85 66t-67 87 t-62 86t-69 66t-87 27q-64 0 -91 -25t-37 -63t-10 -84t-6 -90t-25 -79t-65 -51l-46 42q0 6 -2 25t-4 39l-4 46q-2 24 -2 36zM40 406q0 124 58 231t153 184t214 121t241 44q68 0 121 -44t89 -107t55 -133t19 -122q0 -112 -54 -217t-140 -186t-194 -131t-216 -50 q-96 0 -162 33t-106 88t-59 130t-19 159zM210 386q0 -52 9 -91t32 -67t61 -43t94 -15q74 0 148 41t133 104t95 139t36 148q0 32 -6 70t-20 70t-40 54t-66 22q-36 0 -85 -24t-102 -62t-104 -86t-93 -96t-67 -92t-25 -72z" />
<glyph unicode="&#xf6;" d="M40 406q0 124 58 231t153 184t214 121t241 44q68 0 121 -44t89 -107t55 -133t19 -122q0 -112 -54 -217t-140 -186t-194 -131t-216 -50q-96 0 -162 33t-106 88t-59 130t-19 159zM210 386q0 -52 9 -91t32 -67t61 -43t94 -15q74 0 148 41t133 104t95 139t36 148q0 32 -6 70 t-20 70t-40 54t-66 22q-36 0 -85 -24t-102 -62t-104 -86t-93 -96t-67 -92t-25 -72zM262 1228q-2 30 22 59t84 43q90 0 90 -94q-22 -58 -55 -78t-63 -14t-53 30t-25 54zM716 1228q-2 30 21 59t85 43q90 0 90 -94q-24 -58 -56 -78t-63 -14t-53 30t-24 54z" />
<glyph unicode="&#xf7;" horiz-adv-x="802" d="M50 602q0 6 2 23t2 19q50 0 129 7t162 11t160 5t123 -7q36 0 50 -8t14 -56q-60 -40 -133 -57t-147 -22t-145 -2t-127 1q-54 -4 -72 22t-18 64zM114 876q0 32 24 60t59 49t72 34t63 13q58 0 74 -35t16 -87q0 -38 -16 -65t-43 -45t-63 -27t-76 -9q-8 0 -10 2q-6 0 -10 2 q-6 2 -19 14t-27 25t-25 27t-15 20q-2 4 -2 10q-2 6 -2 12zM286 232q0 64 38 99t94 49t117 16t107 2q0 -56 -16 -106t-47 -87t-77 -60t-106 -23q-62 0 -86 24t-24 86z" />
<glyph unicode="&#xf8;" d="M40 406q0 124 58 231t153 184t213 121q84 30 168 40q60 74 126 114q78 46 166 24q-30 -108 -70 -204q36 -36 62 -80q36 -64 55 -134t19 -122q0 -112 -54 -217t-140 -186t-194 -133q-88 -38 -172 -46q-10 -40 -18 -82q-8 -58 -36 -67t-64 -1q-28 8 -49 20t-27 48l12 50 l12 48q-18 6 -36 14q-66 34 -106 89t-59 130t-19 159zM210 386q0 -52 9 -91t31 -69q20 -22 50 -38q14 54 36 134q30 100 68 212q34 92 74 184q-42 -32 -84 -72q-50 -48 -92 -96t-67 -92t-25 -72zM492 184q32 10 62 26q74 42 133 105t95 139t36 148q0 32 -6 70t-20 70l-10 18 q-12 -24 -22 -48q-50 -92 -101 -185t-99 -191q-36 -74 -68 -152z" />
<glyph unicode="&#xf9;" d="M40 816q0 12 1 43t1 65t1 63t1 41q14 24 33 47t40 32t46 3t51 -40v-16v-26q-2 -10 -8 -47t-14 -81t-15 -81t-7 -47q0 -38 8 -95t23 -119t38 -124t55 -111t71 -81t91 -32q64 0 113 34t85 88t59 122t37 137t20 133t6 112t-7 91t-17 85t-17 83t-7 83q0 38 27 54t61 16 q42 0 68 -25t41 -63t20 -87t5 -97t-2 -91t-2 -69q0 -68 -10 -154t-35 -177t-62 -179t-90 -157t-122 -111t-155 -42q-90 0 -158 43t-115 114t-79 161t-49 180t-24 175t-7 147zM326 1598q8 40 26 51t41 3t50 -33t55 -57t54 -68t46 -68q2 -2 9 -12t13 -16q22 -26 21 -53 t-14 -45t-38 -20t-47 22z" />
<glyph unicode="&#xfa;" d="M40 816q0 12 1 43t1 65t1 63t1 41q14 24 33 47t40 32t46 3t51 -40v-16v-26q-2 -10 -8 -47t-14 -81t-15 -81t-7 -47q0 -38 8 -95t23 -119t38 -124t55 -111t71 -81t91 -32q64 0 113 34t85 88t59 122t37 137t20 133t6 112t-7 91t-17 85t-17 83t-7 83q0 38 27 54t61 16 q42 0 68 -25t41 -63t20 -87t5 -97t-2 -91t-2 -69q0 -68 -10 -154t-35 -177t-62 -179t-90 -157t-122 -111t-155 -42q-90 0 -158 43t-115 114t-79 161t-49 180t-24 175t-7 147zM393 1365q-1 29 21 57q6 6 13 17t9 15q20 32 46 72t54 75t55 62t51 36t41 -4t25 -57l-216 -320 q-24 -28 -48 -24t-37 23t-14 48z" />
<glyph unicode="&#xfb;" d="M40 816q0 12 1 43t1 65t1 63t1 41q14 24 33 47t40 32t46 3t51 -40v-16v-26q-2 -10 -8 -47t-14 -81t-15 -81t-7 -47q0 -38 8 -95t23 -119t38 -124t55 -111t71 -81t91 -32q64 0 113 34t85 88t59 122t37 137t20 133t6 112t-7 91t-17 85t-17 83t-7 83q0 38 27 54t61 16 q42 0 68 -25t41 -63t20 -87t5 -97t-2 -91t-2 -69q0 -68 -10 -154t-35 -177t-62 -179t-90 -157t-122 -111t-155 -42q-90 0 -158 43t-115 114t-79 161t-49 180t-24 175t-7 147zM122 1310q0 38 13 96t36 124t54 136t67 130t77 105t81 63q40 -22 82 -64t85 -95t84 -112t79 -113 t71 -100t55 -70q-2 -4 -12 -16t-24 -25t-28 -27t-22 -20h-8q-6 -2 -12 -2q-8 0 -14 2h-8q-60 40 -92 95t-60 104t-64 83t-102 34q-42 -102 -66 -166t-40 -100t-30 -51t-37 -17t-62 2t-103 4z" />
<glyph unicode="&#xfc;" d="M40 816q0 12 1 43t1 65t1 63t1 41q14 24 33 47t40 32t46 3t51 -40v-16v-26q-2 -10 -8 -47t-14 -81t-15 -81t-7 -47q0 -38 8 -95t23 -119t38 -124t55 -111t71 -81t91 -32q64 0 113 34t85 88t59 122t37 137t20 133t6 112t-7 91t-17 85t-17 83t-7 83q0 38 27 54t61 16 q42 0 68 -25t41 -63t20 -87t5 -97t-2 -91t-2 -69q0 -68 -10 -154t-35 -177t-62 -179t-90 -157t-122 -111t-155 -42q-90 0 -158 43t-115 114t-79 161t-49 180t-24 175t-7 147zM262 1468q-2 30 22 59t84 43q90 0 90 -94q-22 -58 -55 -78t-63 -14t-53 30t-25 54zM716 1468 q-2 30 21 59t85 43q90 0 90 -94q-24 -58 -56 -78t-63 -14t-53 30t-24 54z" />
<glyph unicode="&#xfd;" horiz-adv-x="986" d="M6 1034q0 18 1 37t8 36t20 26t39 9h5h7q6 -2 10 -2q38 -52 66 -133t54 -172t56 -184t78 -167t118 -118t174 -38q46 0 60 50t15 128t-4 172t0 179t30 149t87 86q26 -52 43 -163t25 -256t8 -314t-8 -336t-24 -321t-36 -270t-47 -183t-57 -57q-42 40 -65 104t-32 142t-7 165 t7 175t12 172t7 154q-72 -6 -147 22t-147 87t-137 143t-114 190t-77 229t-28 259zM427 1319q-1 29 21 57q6 6 13 17t9 15q20 32 46 72t54 75t55 62t51 36t41 -4t25 -57l-216 -320q-24 -28 -48 -24t-37 23t-14 48z" />
<glyph unicode="&#xfe;" horiz-adv-x="944" d="M34 1220q0 66 1 114t5 66q4 48 22 78t40 35t48 -20t50 -85q6 -14 4 -46t-7 -72t-8 -85t-2 -81t8 -60t27 -24q42 22 105 36t133 17t140 -10t127 -48t95 -92t44 -143q0 -108 -47 -203t-118 -178t-156 -154t-159 -135q-4 -8 -7 -33t-3 -33q0 -66 13 -91t28 -44t28 -51 t13 -114q0 -46 -22 -57t-84 -11q-52 22 -93 97t-73 179t-55 223t-40 227t-30 193t-21 123q0 26 -1 80t-2 121t-2 141t-1 140zM210 720q0 -30 4 -87t17 -113t39 -97t72 -41q62 0 125 42t112 106t80 137t31 133q0 50 -24 79t-61 46t-79 22t-80 5q-114 0 -175 -61t-61 -171z " />
<glyph unicode="&#xff;" horiz-adv-x="986" d="M6 1034q0 18 1 37t8 36t20 26t39 9h5h7q6 -2 10 -2q38 -52 66 -133t54 -172t56 -184t78 -167t118 -118t174 -38q46 0 60 50t15 128t-4 172t0 179t30 149t87 86q26 -52 43 -163t25 -256t8 -314t-8 -336t-24 -321t-36 -270t-47 -183t-57 -57q-42 40 -65 104t-32 142t-7 165 t7 175t12 172t7 154q-72 -6 -147 22t-147 87t-137 143t-114 190t-77 229t-28 259zM242 1468q-2 30 22 59t84 43q90 0 90 -94q-22 -58 -55 -78t-63 -14t-53 30t-25 54zM696 1468q-2 30 21 59t85 43q90 0 90 -94q-24 -58 -56 -78t-63 -14t-53 30t-24 54z" />
<glyph unicode="&#x152;" horiz-adv-x="2180" d="M62 522q0 204 32 356t87 261t126 181t149 116t157 64t149 27t125 4t85 -5l-7 7t-7 5v18q4 28 30 43t56 22t60 8t46 1q4 0 8 -2q6 -2 14 -2q2 0 5 -1t7 -1q6 -2 10 -2q46 -14 117 -37t150 -48t160 -50t148 -47t111 -36t54 -16q16 -4 39 -15t46 -26t41 -35t24 -42 q-22 -28 -38 -42t-29 -20t-30 -4t-37 6q-84 16 -165 38t-163 46l-164 46q-82 24 -166 40q-6 -38 -29 -105t-43 -145t-27 -158t19 -138q38 12 75 15t75 -1t76 -12l76 -16l84 -18q52 -10 97 -31t73 -56t18 -89q-10 -40 -29 -57t-75 -5q-6 2 -22 11t-36 22t-37 23t-23 10 l-106 26q-46 10 -89 12t-78 -10t-59 -42t-36 -84l-10 -54q-8 -36 -14 -79t-8 -89t6 -84t25 -66t51 -34q4 -2 22 -3t20 -1q72 30 155 56t170 39t176 14t173 -15l-46 -114q0 -8 -45 -27t-117 -41t-158 -45t-171 -39t-161 -24t-122 2q-44 8 -75 40t-53 78q-52 -24 -119 -40 t-138 -26t-140 -15t-127 -5q-112 0 -192 51t-133 132t-78 180t-25 199zM232 476q0 -54 17 -114t50 -109t80 -83t111 -34q50 0 113 7t127 20t125 33t111 48q-10 102 -8 222t12 244t27 243t32 221t28 178t17 112l-54 -108q-84 0 -175 -28t-178 -82t-166 -131t-139 -175 t-95 -215t-35 -249z" />
<glyph unicode="&#x153;" horiz-adv-x="1898" d="M40 406q0 124 58 231t153 184t214 121t241 44q62 0 112 -38t86 -94q26 62 64 115t89 92t117 60t148 21q72 0 129 -27t95 -71t57 -103t19 -123q0 -102 -48 -198t-127 -169t-180 -110t-207 -17q2 -58 39 -93t89 -53t109 -23t97 -5q46 0 87 8t81 18t81 18t87 8q18 0 37 -2 t34 -9t25 -22t10 -37q0 -38 -28 -63t-71 -43t-95 -27t-102 -14t-90 -6t-60 -1q-188 0 -316 80t-184 224q-46 -62 -104 -114t-124 -90t-136 -60t-140 -22q-96 0 -162 33t-106 88t-59 130t-19 159zM210 386q0 -52 9 -91t32 -67t61 -43t94 -15q74 0 148 41t133 104t95 139 t36 148q0 32 -6 70t-20 70t-40 54t-66 22q-36 0 -85 -24t-102 -62t-104 -86t-93 -96t-67 -92t-25 -72zM1056 668q0 -36 4 -61t16 -42t33 -24t57 -7q52 0 103 19t91 52t65 80t25 101q0 30 -5 62t-20 59t-41 44t-66 17q-62 0 -110 -27t-82 -70t-52 -96t-18 -107z" />
<glyph unicode="&#x178;" horiz-adv-x="1286" d="M40 2062q0 10 1 24t4 27t13 22t26 9q50 0 86 -35t66 -93t56 -132t53 -150t57 -150t67 -132t85 -93t110 -35q4 0 11 2t11 2q56 50 101 133t83 179t74 198t75 190t82 154t99 92l86 -88q16 -16 5 -65t-38 -122t-67 -162t-84 -185t-88 -191t-79 -179t-57 -150t-22 -104 q0 -120 35 -232t75 -223t74 -222t34 -227v-41t-7 -47t-26 -34t-55 -2q-74 108 -130 245t-96 285t-59 299t-15 287q-78 16 -156 72t-149 136t-134 178t-109 198t-72 194t-26 168zM306 2356q-2 30 22 59t84 43q90 0 90 -94q-22 -58 -55 -78t-63 -14t-53 30t-25 54zM760 2356 q-2 30 21 59t85 43q90 0 90 -94q-24 -58 -56 -78t-63 -14t-53 30t-24 54z" />
<glyph unicode="&#x2c6;" horiz-adv-x="856" d="M54 1310q0 38 13 96t36 124t54 136t67 130t77 105t81 63q40 -22 82 -64t85 -95t84 -112t79 -113t71 -100t55 -70q-2 -4 -12 -16t-24 -25t-28 -27t-22 -20h-8q-6 -2 -12 -2q-8 0 -14 2h-8q-60 40 -92 95t-60 104t-64 83t-102 34q-42 -102 -66 -166t-40 -100t-30 -51 t-37 -17t-62 2t-103 4z" />
<glyph unicode="&#x2dc;" horiz-adv-x="1242" d="M68 1028q0 66 12 139t44 134t89 101t147 40q64 0 111 -29t84 -72t69 -94t68 -95t79 -72t101 -28q68 0 99 20t41 53t7 73t-3 79t9 70t43 49h40q6 -2 19 -7t26 -11t26 -13t17 -9q0 -8 1 -23t1 -32t1 -33t1 -20q0 -176 -92 -275t-264 -99q-66 0 -114 26t-85 66t-67 87 t-62 86t-69 66t-87 27q-64 0 -91 -25t-37 -63t-10 -84t-6 -90t-25 -79t-65 -51l-46 42q0 6 -2 25t-4 39l-4 46q-2 24 -2 36z" />
<glyph unicode="&#x2000;" horiz-adv-x="1274" />
<glyph unicode="&#x2001;" horiz-adv-x="2548" />
<glyph unicode="&#x2002;" horiz-adv-x="1274" />
<glyph unicode="&#x2003;" horiz-adv-x="2548" />
<glyph unicode="&#x2004;" horiz-adv-x="849" />
<glyph unicode="&#x2005;" horiz-adv-x="637" />
<glyph unicode="&#x2006;" horiz-adv-x="424" />
<glyph unicode="&#x2007;" horiz-adv-x="424" />
<glyph unicode="&#x2008;" horiz-adv-x="318" />
<glyph unicode="&#x2009;" horiz-adv-x="509" />
<glyph unicode="&#x200a;" horiz-adv-x="141" />
<glyph unicode="&#x2010;" d="M152 650q0 6 2 23t2 19q32 0 87 5t121 10t137 11t135 8t118 2t84 -6q36 0 51 -8t15 -54q-60 -40 -150 -59t-184 -27t-183 -8t-145 -2q-54 -4 -72 22t-18 64z" />
<glyph unicode="&#x2011;" d="M152 650q0 6 2 23t2 19q32 0 87 5t121 10t137 11t135 8t118 2t84 -6q36 0 51 -8t15 -54q-60 -40 -150 -59t-184 -27t-183 -8t-145 -2q-54 -4 -72 22t-18 64z" />
<glyph unicode="&#x2012;" d="M152 650q0 6 2 23t2 19q32 0 87 5t121 10t137 11t135 8t118 2t84 -6q36 0 51 -8t15 -54q-60 -40 -150 -59t-184 -27t-183 -8t-145 -2q-54 -4 -72 22t-18 64z" />
<glyph unicode="&#x2013;" horiz-adv-x="840" d="M152 650q0 6 2 23t2 19q50 0 129 7t162 11t160 5t123 -7q36 0 50 -8t14 -56q-60 -40 -133 -57t-147 -22t-145 -2t-127 1q-54 -4 -72 22t-18 64z" />
<glyph unicode="&#x2014;" horiz-adv-x="1238" d="M152 650q0 6 2 23t2 19q32 0 108 2t171 4t200 4t199 2t167 -3t105 -9q36 0 50 -9t14 -53q-40 -28 -114 -42t-164 -21t-189 -8t-189 0t-162 3t-110 2q-54 -4 -72 22t-18 64z" />
<glyph unicode="&#x2018;" horiz-adv-x="300" d="M44 1328q0 6 4 18t11 26t14 26t11 16q4 0 10 2q4 0 7 1t5 1q38 0 67 -26t49 -64t29 -79t9 -71q0 -20 -6 -55t-19 -65t-34 -53t-51 -23q-34 0 -53 45t-32 104t-17 116t-4 81z" />
<glyph unicode="&#x2019;" horiz-adv-x="300" d="M44 1328q0 6 4 18t11 26t14 26t11 16q4 0 10 2q4 0 7 1t5 1q38 0 67 -26t49 -64t29 -79t9 -71q0 -20 -6 -55t-19 -65t-34 -53t-51 -23q-34 0 -53 45t-32 104t-17 116t-4 81z" />
<glyph unicode="&#x201a;" horiz-adv-x="300" d="M46 312q0 4 5 16t12 26l13 26t12 18q4 0 10 2q2 0 6 1t6 1q38 0 67 -26t48 -64t29 -80t10 -70q0 -24 -6 -57t-20 -65t-34 -53t-52 -21t-52 45t-32 103t-17 115t-5 83z" />
<glyph unicode="&#x201c;" horiz-adv-x="728" d="M37 1287q-1 57 1 104t2 67q0 14 1 51t1 78t1 77t1 52q2 4 19 21l21 21q4 0 10 2q4 0 7 1t5 1t6 -1t6 -1q6 -2 12 -2q2 -2 8 -7t13 -12t13 -14t6 -9q-8 -98 13 -184t49 -163t52 -145t24 -132q0 -22 -6 -49t-21 -50t-36 -38t-55 -15q-46 0 -77 32t-47 83t-22 113t-7 119z M386 1592q0 22 8 45t21 41t33 29t44 11q26 0 48 -44t40 -111t29 -145t20 -146t13 -114t4 -48q0 -86 -94 -86q-34 0 -60 37t-45 94t-31 126t-19 132t-9 112t-2 67z" />
<glyph unicode="&#x201d;" horiz-adv-x="772" d="M-4 1072q0 50 22 89t47 80t47 85t22 98q0 46 -5 80t-18 66t-40 65t-71 79q12 36 37 42t49 6q46 0 85 -36t69 -87t47 -107t17 -96q0 -46 -17 -122t-49 -149t-81 -126t-113 -53q-18 0 -27 10t-14 24t-6 29t-1 23zM368 1826q80 0 139 -32t100 -85t62 -122t21 -145 q0 -48 -8 -118t-29 -135t-60 -113t-101 -48q-36 0 -52 27t-16 53q0 48 15 91t31 84t30 85t14 90q0 54 -22 97t-50 85t-51 86t-23 100z" />
<glyph unicode="&#x201e;" horiz-adv-x="728" d="M99 249q-1 57 1 104t2 67q0 14 1 51t1 78t1 78t1 51q4 6 21 22t23 20q2 0 8 2q4 0 8 1l4 1q2 0 6 -1t8 -1q4 -2 10 -2q6 -4 22 -20t20 -22q-10 -98 11 -184t49 -162t52 -145t24 -131q0 -24 -6 -51t-20 -49t-37 -38t-53 -16q-48 0 -78 33t-47 84t-24 112t-8 118zM450 552 q0 24 7 46t22 41t33 31t44 12q28 0 49 -45t39 -112t30 -145t21 -145t12 -113t3 -48q0 -48 -24 -67t-68 -19q-34 0 -61 37t-45 93t-30 125t-19 132t-10 111t-3 66z" />
<glyph unicode="&#x2022;" horiz-adv-x="640" d="M142 534v10q0 42 30 81t71 68t86 45t75 16q36 0 58 -13t35 -34t16 -51t3 -64q0 -54 -20 -92t-53 -62t-76 -35t-89 -11h-8q-4 0 -8 2l-10 4q-10 4 -26 19t-32 33t-29 36t-19 26q-2 6 -2 14q-2 4 -2 8z" />
<glyph unicode="&#x2026;" horiz-adv-x="1360" d="M172 60q-2 30 22 59t84 43q90 0 90 -94q-22 -58 -56 -77t-63 -14t-52 29t-25 54zM624 60q-2 30 23 59t85 43q90 0 90 -94q-22 -58 -56 -77t-64 -14t-53 29t-25 54zM1078 60q-2 30 22 59t84 43q92 0 92 -94q-24 -58 -57 -77t-64 -14t-53 29t-24 54z" />
<glyph unicode="&#x202f;" horiz-adv-x="509" />
<glyph unicode="&#x2039;" horiz-adv-x="856" d="M40 514q0 66 40 132t106 129t150 118t171 97t170 66t145 24q0 -58 -29 -106t-77 -90t-107 -81t-116 -77t-109 -80t-84 -90q-2 -6 -4 -8v-12v-12q2 -6 4 -10q4 -2 19 -20t23 -22q10 -8 47 -30t86 -54t104 -66t103 -66t84 -55t50 -31q4 -2 21 -19t19 -21q0 -6 2 -12 q0 -2 1 -6t1 -6t-1 -5t-1 -5q-2 -6 -2 -10q-4 -8 -18 -24t-27 -29t-25 -23t-16 -10q-32 0 -99 25t-148 67t-166 96t-156 112t-116 114t-45 100z" />
<glyph unicode="&#x203a;" horiz-adv-x="900" d="M32 1170q54 0 141 -17t183 -46t194 -69t176 -87t128 -99t50 -102q0 -4 -2 -11t-2 -11l-54 -66q-36 -42 -82 -98t-97 -117t-98 -115t-85 -98t-56 -64q-30 -34 -48 -58t-33 -40t-34 -24t-53 -8q-8 0 -23 1t-30 5t-26 13t-11 27q0 32 28 84t72 111t95 122t99 120t84 100 t52 63q0 4 2 11t2 11l-2 10q-2 4 -2 10q-4 8 -20 24t-24 20q-12 8 -48 30t-84 54t-103 66t-103 65t-84 54t-50 29q-30 20 -41 42t-11 58z" />
<glyph unicode="&#x205f;" horiz-adv-x="637" />
<glyph unicode="&#x20ac;" horiz-adv-x="1418" d="M94 774l38 26h30h36t48 2q-2 116 42 228t131 199t211 138t282 45q116 4 189 -18t109 -55t34 -67t-36 -51t-100 -8t-160 61q-112 14 -206 -25t-163 -109t-111 -159t-50 -173q94 2 189 4t165 6h22q34 0 45 -18t11 -38q0 -34 -16 -52t-62 -34q-14 0 -47 -1t-72 -1h-73h-48 q-20 0 -46 -1t-54 -1l4 -8q0 -26 2 -52t4 -50q54 2 107 0t98 -5t76 -5t41 0q52 2 65 -14t13 -42q0 -30 -23 -47t-58 -25t-74 -10t-69 -4q-18 -2 -53 -2h-77q54 -110 156 -175t250 -65q70 0 120 10t93 24t87 25t102 11q8 0 23 -1t28 -6t23 -14t10 -27q0 -48 -26 -80t-68 -54 t-96 -33t-108 -16t-104 -6t-84 -1q-232 0 -382 108t-210 302q-62 2 -114 2h-76q0 56 46 87t116 47q-12 64 -12 136q-56 10 -101 30t-67 62z" />
<glyph unicode="&#x2122;" horiz-adv-x="3122" d="M40 1328q0 28 5 50t39 34q188 -4 371 2t366 17t366 21t369 10q0 -34 -10 -66q64 -8 118 -49t106 -99t99 -127t92 -138t89 -128t90 -95q50 22 78 81t46 135t33 160t41 153t69 114t119 45q90 0 163 -70t131 -178t99 -239t69 -254t42 -221t14 -138q0 -18 -2 -39t-10 -38 t-27 -26t-53 -1q-8 2 -21 12t-27 24t-24 27t-12 23q-18 96 -39 217t-55 244t-84 238t-124 201q-56 -34 -90 -98t-55 -141t-40 -157t-48 -146t-75 -107t-124 -41q-54 0 -105 35t-99 92t-93 126t-88 136t-84 124t-83 91q-16 -60 -25 -107t-14 -91t-6 -90t-1 -102 q0 -84 14 -167t30 -165t31 -166t15 -166v-16q-4 -8 -16 -20t-25 -26t-27 -26t-20 -14q-2 -2 -8 -2q-6 -2 -12 -2q-4 0 -11 2t-11 2q-12 116 -29 220t-30 205t-22 206t-9 225q0 24 1 79t1 116t1 115t1 76q2 10 7 31t13 43q-54 -12 -117 -10t-122 -3t-104 -23t-59 -68 q-2 -12 -4 -46t-3 -72t-2 -71t-1 -47q0 -114 29 -225t64 -220t64 -218t29 -221q0 -84 -96 -84q-58 0 -103 80t-78 204t-54 270t-34 280t-18 236t-5 134q-8 28 -31 38t-50 11t-53 -3t-40 -4q-34 2 -118 8t-181 13t-181 14t-118 9q0 4 -2 20t-2 22z" />
<glyph unicode="&#x25fc;" horiz-adv-x="1080" d="M0 0v1080h1080v-1080h-1080z" />
<glyph unicode="&#xfb01;" horiz-adv-x="1616" d="M46 928h336q10 112 34 222t65 210t99 186t140 148t189 98t243 36q48 0 96 -23t86 -61t61 -86t23 -96q-38 0 -68 15t-58 34t-60 36t-72 17q-120 0 -223 -48t-180 -128t-121 -186t-44 -224q0 -8 1 -29t1 -45t1 -46t1 -30q74 -24 166 -36t185 -15t179 1q72 2 130 8q8 4 14 8 q36 20 72 32q8 -108 36 -229t59 -244t57 -243t26 -224q0 -90 -92 -90q-56 0 -94 46t-61 117t-37 158t-19 171t-6 154t-1 108v38q2 18 2 40q-18 -4 -40 -8q-68 -10 -151 -14t-160 -7t-138 -8t-85 -19q26 -120 93 -232t137 -224t124 -226t54 -234q-8 0 -37 -1t-61 3t-61 17 t-33 39q-42 78 -93 195t-105 244t-113 249t-119 212q-24 18 -66 22t-88 3t-91 2t-78 21t-49 56t-6 110zM1140 1266q0 54 20 93t78 39q38 -16 64 -52t23 -65t-45 -39t-140 24z" />
<glyph unicode="&#xfb02;" horiz-adv-x="1730" d="M46 928h336q10 112 34 222t65 210t99 186t140 148t189 98t243 36q48 0 96 -23t86 -61t61 -86t23 -96q-38 0 -68 15t-58 34t-60 36t-72 17q-120 0 -223 -48t-180 -128t-121 -186t-44 -224q0 -8 1 -29t1 -45t1 -46t1 -30q74 -24 166 -36t185 -15t180 1t155 10l22 -22 t18 -24q0 -6 2 -8l4 -12q0 -42 -44 -66t-112 -35t-151 -15t-160 -7t-138 -8t-85 -19q26 -120 93 -232t137 -224t124 -226t54 -234q-8 0 -37 -1t-61 3t-61 17t-33 39q-42 78 -93 195t-105 244t-113 249t-119 212q-24 18 -66 22t-88 3t-91 2t-78 21t-49 56t-6 110zM1306 1311 q4 43 31 69t99 26q22 -46 43 -140t41 -216t38 -265t33 -287t26 -283t17 -253q-66 -44 -106 -6t-66 129t-40 222t-27 272t-31 278t-46 243q0 58 -8 113t-4 98z" />
</font>
</defs>
</svg>
