<?xml version="1.0" standalone="no"?>
<!DOCTYPE svg PUBLIC "-//W3C//DTD SVG 1.1//EN" "http://www.w3.org/Graphics/SVG/1.1/DTD/svg11.dtd" >
<svg xmlns="http://www.w3.org/2000/svg">
<metadata></metadata>
<defs>
<font id="noto_sansregular" horiz-adv-x="1128" >
<font-face units-per-em="2048" ascent="1638" descent="-410" />
<missing-glyph horiz-adv-x="532" />
<glyph horiz-adv-x="0" />
<glyph unicode="&#xd;" horiz-adv-x="532" />
<glyph horiz-adv-x="0" />
<glyph horiz-adv-x="0" />
<glyph unicode=" "  horiz-adv-x="532" />
<glyph unicode="&#x09;" horiz-adv-x="532" />
<glyph unicode="&#xa0;" horiz-adv-x="532" />
<glyph unicode="!" horiz-adv-x="785" d="M299 111q0 38 10 64.5t27 43t40 24t50 7.5q26 0 49.5 -7.5t40.5 -24t27 -43t10 -64.5q0 -37 -10 -63.5t-27 -43.5t-40.5 -25t-49.5 -8q-27 0 -50 8t-40 25t-27 43.5t-10 63.5zM316 1462h223l-51 -1048h-121z" />
<glyph unicode="&#x22;" horiz-adv-x="1028" d="M235 1493h227l-51 -528h-125zM538 1836zM543 1274zM596 1493h226l-51 -528h-124z" />
<glyph unicode="#" horiz-adv-x="1337" d="M70 361v135h281l62 311h-269v134h293l68 354h144l-67 -354h287l69 354h141l-69 -354h257v-134h-284l-59 -311h272v-135h-299l-69 -361h-144l71 361h-285l-70 -361h-141l66 361h-255zM495 496h286l60 311h-285z" />
<glyph unicode="$" horiz-adv-x="1171" d="M127 168v168q75 -35 183.5 -60.5t207.5 -27.5v428q-205 65 -290 152.5t-85 224.5q0 132 101 217t274 104v180h131v-178q190 -5 361 -76l-56 -141q-155 61 -305 72v-422q160 -54 238.5 -102t115.5 -109.5t37 -148.5q0 -137 -101.5 -227t-289.5 -113v-228h-131v219 q-114 2 -218.5 19.5t-172.5 48.5zM326 1055q0 -73 43 -118t149 -83v373q-94 -16 -143 -61t-49 -111zM649 258q209 32 209 178q0 72 -47 114.5t-162 82.5v-375z" />
<glyph unicode="%" horiz-adv-x="1695" d="M117 925q0 87 17 156t53.5 116.5t92.5 72t133 24.5q74 0 130 -24.5t94.5 -72t57.5 -116.5t19 -156q0 -86 -17.5 -155.5t-54.5 -117.5t-94 -73t-135 -25q-73 0 -128 25t-93 73t-56.5 117.5t-18.5 155.5zM265 925q0 -120 35 -180t113 -60q153 0 153 240t-153 240 q-78 0 -113 -60t-35 -180zM375 0l791 1274h158l-789 -1274h-160zM982 351q0 87 17.5 156t53.5 116t92 72t133 25q75 0 131 -25t93.5 -72t56.5 -116t19 -156t-17 -155.5t-54 -116.5t-93.5 -73.5t-135.5 -25.5q-73 0 -128.5 25.5t-92.5 73.5t-56 116.5t-19 155.5zM1130 351 q0 -120 35 -179.5t113 -59.5q153 0 153 239q0 240 -153 240q-78 0 -113 -59.5t-35 -180.5z" />
<glyph unicode="&#x26;" horiz-adv-x="1499" d="M109 381q0 130 67 228t248 202q-77 87 -109.5 137.5t-50.5 104t-18 112.5q0 148 99 234t278 86q165 0 259.5 -84t94.5 -232q0 -109 -68.5 -200t-224.5 -183l395 -380q93 108 144 325h182q-69 -285 -209 -440l299 -291h-244l-178 172q-114 -102 -235.5 -147t-268.5 -45 q-215 0 -337.5 105t-122.5 296zM297 387q0 -113 77 -180.5t201 -67.5q227 0 383 146l-426 413q-138 -83 -186.5 -151t-48.5 -160zM422 1167q0 -65 35.5 -130t115.5 -144q124 69 175 132t51 144q0 76 -51 122t-132 46q-89 0 -141.5 -47t-52.5 -123z" />
<glyph unicode="'" horiz-adv-x="668" d="M235 1493h227l-51 -528h-125zM448 1836zM453 1274z" />
<glyph unicode="(" horiz-adv-x="724" d="M140 691q0 143 17.5 280t54 265t92 245.5t132.5 221.5h166q-69 -109 -123 -229t-91 -250t-55 -264.5t-18 -270.5q0 -279 73 -542.5t216 -484.5h-168q-77 106 -132.5 226.5t-92 252t-54 270t-17.5 280.5zM448 1836zM453 1274zM479 -548z" />
<glyph unicode=")" horiz-adv-x="724" d="M120 1703h168q77 -106 132.5 -226.5t92 -252t54 -270t17.5 -280.5q0 -143 -17.5 -280t-54 -265t-92 -245.5t-132.5 -221.5h-166q69 109 123 229t91 250t55 264.5t18 270.5q0 279 -73 542.5t-216 484.5zM248 1836zM253 1274zM479 -548z" />
<glyph unicode="*" horiz-adv-x="1243" d="M150 1050l29 193l391 -111l-43 393h205l-43 -393l397 111l26 -193l-378 -28l245 -326l-178 -96l-176 358l-158 -358l-184 96l242 326zM448 1836zM453 1274z" />
<glyph unicode="+" d="M102 585v150h387v388h150v-388h387v-150h-387v-386h-150v386h-387zM453 1274z" />
<glyph unicode="," horiz-adv-x="512" d="M63 -264q15 61 29.5 127t28 131.5t24.5 128t19 115.5h198l15 -23q-14 -54 -33.5 -115t-43 -123t-49 -123.5t-50.5 -117.5h-138z" />
<glyph unicode="-" horiz-adv-x="696" d="M100 524v168h496v-168h-496zM453 1274z" />
<glyph unicode="." horiz-adv-x="549" d="M147 111q0 38 10 64.5t27 43t40 24t50 7.5q26 0 49.5 -7.5t40.5 -24t27 -43t10 -64.5q0 -37 -10 -63.5t-27 -43.5t-40.5 -25t-49.5 -8q-27 0 -50 8t-40 25t-27 43.5t-10 63.5z" />
<glyph unicode="/" horiz-adv-x="879" d="M86 -339l539 2044h168l-537 -2044h-170zM448 1836zM453 1274zM479 -548z" />
<glyph unicode="0" d="M98 733q0 177 25.5 317t81 236.5t144 147.5t214.5 51q119 0 207 -50.5t146 -147t87 -236.5t29 -318q0 -177 -25.5 -317t-82 -237t-145.5 -148t-216 -51q-118 0 -205.5 51t-145 148t-86 237t-28.5 317zM283 733q0 -150 15 -262t48 -186.5t86.5 -112t130.5 -37.5t131 37 t88.5 111t50 186.5t15.5 263.5q0 150 -15.5 262t-50 186t-88.5 111t-131 37t-130.5 -37t-86.5 -111t-48 -186t-15 -262z" />
<glyph unicode="1" d="M178 1163l383 299h150v-1462h-176v913q0 43 0.5 92t2 97.5t3 93t2.5 78.5q-17 -18 -30 -31t-26.5 -25t-28.5 -25.5t-36 -31.5l-148 -121z" />
<glyph unicode="2" d="M96 0v156l350 381q75 81 134 148t100.5 131t63.5 128.5t22 140.5q0 59 -17 104t-48.5 76.5t-74.5 47.5t-96 16q-95 0 -171.5 -38.5t-145.5 -98.5l-102 119q40 36 86 67.5t99 54.5t112 36.5t124 13.5q96 0 173.5 -27t131.5 -77.5t83.5 -123t29.5 -163.5q0 -85 -26.5 -162 t-73 -151.5t-111 -149.5t-139.5 -156l-281 -299v-8h689v-166h-912z" />
<glyph unicode="3" d="M82 59v170q87 -46 188.5 -71t194.5 -25q92 0 159 20t110.5 57t64 91t20.5 121q0 68 -26.5 116.5t-75.5 80t-119.5 46.5t-159.5 15h-133v151h133q81 0 144 20t105.5 57t64.5 88t22 112q0 52 -18 93t-51 69.5t-79 43.5t-102 15q-107 0 -188.5 -33.5t-155.5 -87.5l-92 125 q38 31 84.5 58t101.5 47.5t117.5 32.5t132.5 12q108 0 189.5 -27t136.5 -75.5t83 -115t28 -145.5q0 -73 -23 -133t-64.5 -104t-99.5 -72.5t-129 -40.5v-6q177 -22 269 -112.5t92 -235.5q0 -96 -32.5 -176t-98.5 -138t-167 -90t-239 -32q-109 0 -205.5 17t-181.5 62z" />
<glyph unicode="4" d="M23 328v159l663 983h188v-976h213v-166h-213v-328h-176v328h-675zM201 494h497v356q0 56 1.5 117.5t3.5 120t4.5 109.5t3.5 85h-9q-7 -20 -17.5 -44.5t-23 -49t-25.5 -47.5t-24 -39z" />
<glyph unicode="5" d="M131 59v172q33 -23 77.5 -41t93.5 -30t98.5 -18.5t91.5 -6.5q79 0 141 18.5t105 57.5t66 98t23 140q0 143 -88 218.5t-256 75.5q-27 0 -58.5 -2.5t-63 -6.5t-60 -8.5t-49.5 -8.5l-90 57l55 688h690v-166h-532l-39 -419q32 6 84.5 13t124.5 7q99 0 184.5 -27.5t149 -81.5 t99.5 -134t36 -185q0 -114 -34 -205t-101 -154t-165.5 -96.5t-226.5 -33.5q-51 0 -100.5 5t-95 14.5t-86.5 24.5t-74 35z" />
<glyph unicode="6" d="M113 625q0 105 10.5 209t37 199.5t72.5 177.5t117 142.5t170 95t232 34.5q19 0 42 -1t46.5 -3.5t45 -6t38.5 -8.5v-155q-35 12 -79 18t-87 6q-90 0 -158.5 -21.5t-118.5 -60.5t-83.5 -93t-54.5 -119.5t-31 -139.5t-13 -154h12q20 36 48.5 67.5t66.5 54t85.5 35.5 t106.5 13q95 0 172 -29.5t131 -86.5t83.5 -139.5t29.5 -188.5q0 -114 -31 -205t-89 -154.5t-140 -97.5t-184 -34q-100 0 -187.5 39t-151.5 119t-101 201t-37 286zM295 506q0 -67 18.5 -133.5t55 -119.5t91.5 -86.5t128 -33.5q60 0 109.5 20.5t85.5 62t55.5 105t19.5 150.5 q0 70 -16.5 125.5t-49.5 94.5t-82.5 60t-115.5 21q-67 0 -122.5 -23.5t-94.5 -61t-60.5 -85.5t-21.5 -96z" />
<glyph unicode="7" d="M90 1296v166h940v-145l-555 -1317h-194l563 1296h-754z" />
<glyph unicode="8" d="M106 373q0 75 22.5 135t60.5 108t90 85t110 65q-49 31 -92 67.5t-74.5 81.5t-50 99.5t-18.5 120.5q0 87 33.5 152.5t90.5 109.5t131.5 66t155.5 22q84 0 158.5 -22t131 -66t89.5 -110t33 -154q0 -67 -20 -121t-55 -97.5t-83 -78t-104 -62.5q58 -31 113.5 -69t99 -85.5 t70 -106.5t26.5 -132q0 -92 -33.5 -166.5t-94 -126.5t-145 -80t-186.5 -28q-110 0 -195.5 27t-144 77.5t-89 123.5t-30.5 165zM285 371q0 -53 16 -97.5t50 -76t86 -49t124 -17.5q70 0 123.5 17.5t89.5 50t54 78.5t18 102q0 52 -19.5 94t-56 78t-87.5 68t-114 63l-30 14 q-126 -60 -190 -137.5t-64 -187.5zM332 1126q0 -57 17.5 -98t48.5 -73t74.5 -57.5t94.5 -49.5q48 22 90.5 48t74 59t49.5 75t18 96q0 101 -63 154t-173 53q-106 0 -168.5 -53t-62.5 -154zM967 696z" />
<glyph unicode="9" d="M106 991q0 114 31.5 205.5t89 155t140 97.5t184.5 34q101 0 188 -39t151 -119t101 -201.5t37 -285.5q0 -105 -10.5 -209.5t-37 -199.5t-72.5 -177.5t-117 -142.5t-170 -94.5t-232 -34.5q-19 0 -42 1t-46 3.5t-45 5.5t-39 8v156q35 -13 79 -19t87 -6q135 0 222 47 t138 127.5t72.5 187.5t26.5 226h-13q-20 -36 -48 -67t-66 -54t-86 -36t-107 -13q-95 0 -172 29.5t-131 86.5t-83.5 139.5t-29.5 188.5zM283 991q0 -70 16.5 -125.5t49.5 -94.5t82.5 -60t115.5 -21q68 0 123 23.5t94 61t60.5 85.5t21.5 96q0 67 -18.5 133.5t-55 120 t-91.5 86.5t-128 33q-60 0 -109.5 -20t-85.5 -62t-55.5 -105.5t-19.5 -150.5z" />
<glyph unicode=":" horiz-adv-x="603" d="M175 111q0 38 10 64.5t27 43t40 24t50 7.5q26 0 49.5 -7.5t40.5 -24t27 -43t10 -64.5q0 -37 -10 -63.5t-27 -43.5t-40.5 -25t-49.5 -8q-27 0 -50 8t-40 25t-27 43.5t-10 63.5zM175 987q0 39 10 65.5t27 43t40 23.5t50 7q26 0 49.5 -7t40.5 -23.5t27 -43t10 -65.5 q0 -37 -10 -63t-27 -43t-40.5 -25t-49.5 -8q-27 0 -50 8t-40 25t-27 43t-10 63zM302 1274z" />
<glyph unicode=";" horiz-adv-x="603" d="M91 -264q15 61 29.5 127t28 131.5t24.5 128t19 115.5h198l15 -23q-14 -54 -33.5 -115t-43 -123t-49 -123.5t-50.5 -117.5h-138zM175 987q0 39 10 65.5t27 43t40 23.5t50 7q26 0 49.5 -7t40.5 -23.5t27 -43t10 -65.5q0 -37 -10 -63t-27 -43t-40.5 -25t-49.5 -8 q-27 0 -50 8t-40 25t-27 43t-10 63zM302 1274z" />
<glyph unicode="&#x3c;" d="M102 581v102l924 481v-160l-735 -364l735 -322v-161zM453 1274z" />
<glyph unicode="=" d="M102 381v150h924v-150h-924zM102 791v149h924v-149h-924zM453 1274z" />
<glyph unicode="&#x3e;" d="M102 157v161l736 322l-736 364v160l924 -481v-102zM453 1274z" />
<glyph unicode="?" horiz-adv-x="1060" d="M146 1382q81 42 175 71.5t191 29.5q93 0 167.5 -25.5t126.5 -73.5t80 -117.5t28 -156.5q0 -67 -13.5 -119.5t-40.5 -97.5t-67 -87t-94 -89q-52 -45 -85 -78.5t-52 -65t-26 -64.5t-7 -77v-18h-139v37q0 57 7.5 103t27 86t52.5 78.5t83 80.5q48 41 82 74.5t55.5 68t32 74 t10.5 92.5q0 48 -15 87.5t-43.5 68t-71 44t-98.5 15.5q-83 0 -158 -26t-145 -60zM342 111q0 38 10 64.5t27 43t40 24t50 7.5q26 0 49.5 -7.5t40.5 -24t27 -43t10 -64.5q0 -37 -10 -63.5t-27 -43.5t-40.5 -25t-49.5 -8q-27 0 -50 8t-40 25t-27 43.5t-10 63.5z" />
<glyph unicode="@" horiz-adv-x="1841" d="M119 573q0 259 107.5 462.5t305.5 315t455 111.5q215 0 383.5 -91t260 -258t91.5 -382q0 -140 -44.5 -258t-124.5 -184t-185 -66q-85 0 -143 49.5t-72 128.5h-10q-39 -83 -114 -130.5t-175 -47.5q-152 0 -239 101.5t-87 279.5q0 133 53.5 238.5t153.5 164t228 58.5 q69 0 157.5 -12.5t155.5 -36.5l-23 -468v-22q0 -176 127 -176q89 0 144 105t55 278q0 179 -73.5 314t-209 207.5t-309.5 72.5q-220 0 -383.5 -91.5t-250.5 -261t-87 -394.5q0 -302 159 -464.5t462 -162.5q212 0 440 88v-139q-200 -84 -440 -84q-364 0 -566 199.5t-202 555.5 zM688 600q0 -250 193 -250q205 0 223 309l12 256q-73 21 -151 21q-129 0 -203 -89t-74 -247z" />
<glyph unicode="A" horiz-adv-x="1309" d="M0 0l571 1468h166l570 -1468h-191l-176 453h-580l-174 -453h-186zM422 616h463l-164 443l-70 219q-30 -120 -63 -219z" />
<glyph unicode="B" horiz-adv-x="1331" d="M199 0v1462h417q294 0 424.5 -87.5t130.5 -274.5q0 -130 -71 -214.5t-207 -109.5v-10q169 -29 248.5 -117t79.5 -233q0 -196 -134 -306t-374 -110h-514zM383 156h295q176 0 261 68t85 206q0 131 -90 193.5t-270 62.5h-281v-530zM383 840h270q172 0 250 55t78 184 q0 120 -85.5 173t-270.5 53h-242v-465z" />
<glyph unicode="C" horiz-adv-x="1294" d="M125 733q0 226 83.5 396t243 262t375.5 92q232 0 404 -86l-74 -156q-175 80 -332 80q-236 0 -371 -158t-135 -432q0 -283 131 -436.5t373 -153.5q156 0 351 58v-160q-93 -34 -179 -46.5t-198 -12.5q-323 0 -497.5 196.5t-174.5 556.5z" />
<glyph unicode="D" horiz-adv-x="1495" d="M199 0v1462h450q341 0 531 -187.5t190 -529.5q0 -362 -197.5 -553.5t-566.5 -191.5h-407zM383 158h199q594 0 594 581q0 279 -137.5 422.5t-415.5 143.5h-240v-1147z" />
<glyph unicode="E" horiz-adv-x="1139" d="M199 0v1462h817v-162h-633v-456h596v-160h-596v-522h633v-162h-817z" />
<glyph unicode="F" horiz-adv-x="1063" d="M199 0v1462h817v-162h-633v-518h594v-161h-594v-621h-184z" />
<glyph unicode="G" horiz-adv-x="1491" d="M125 731q0 229 91 400t262.5 261.5t404.5 90.5q234 0 436 -86l-70 -160q-193 84 -377 84q-261 0 -408 -158t-147 -432q0 -290 141 -441t410 -151q147 0 287 35v434h-321v164h505v-717q-116 -37 -236 -56t-278 -19q-334 0 -517 198t-183 553z" />
<glyph unicode="H" horiz-adv-x="1518" d="M199 0v1462h184v-618h750v618h184v-1462h-184v682h-750v-682h-184z" />
<glyph unicode="I" horiz-adv-x="694" d="M82 0v106l172 39v1170l-172 41v106h528v-106l-172 -41v-1170l172 -39v-106h-528z" />
<glyph unicode="J" horiz-adv-x="559" d="M-160 -207q71 -20 148 -20q100 0 150 60.5t50 174.5v1454h185v-1439q0 -198 -98.5 -305t-282.5 -107q-94 0 -152 27v155z" />
<glyph unicode="K" horiz-adv-x="1268" d="M199 0v1462h184v-721l126 139l521 582h215l-579 -637l602 -825h-217l-519 698l-149 -131v-567h-184z" />
<glyph unicode="L" horiz-adv-x="1073" d="M199 0v1462h184v-1298h639v-164h-823z" />
<glyph unicode="M" horiz-adv-x="1858" d="M199 0v1462h272l451 -1198h8l459 1198h270v-1462h-182v899q0 150 14 381h-8l-488 -1280h-151l-482 1282h-8q15 -160 15 -395v-887h-170z" />
<glyph unicode="N" horiz-adv-x="1556" d="M199 0v1462h213l45 -71l480 -742l255 -397h8q-2 24 -8 171.5t-6 213.5v825h172v-1462h-215l-783 1214h-8l5 -81q12 -182 12 -316v-817h-170z" />
<glyph unicode="O" horiz-adv-x="1599" d="M125 735q0 357 175.5 553.5t502.5 196.5q318 0 495 -199.5t177 -552.5q0 -351 -177.5 -552t-496.5 -201q-323 0 -499.5 197.5t-176.5 557.5zM319 733q0 -290 123 -442t359 -152q235 0 357 150t122 444q0 293 -121 441.5t-356 148.5q-238 0 -361 -150.5t-123 -439.5z" />
<glyph unicode="P" horiz-adv-x="1239" d="M199 0v1462h387q549 0 549 -430q0 -224 -153 -343.5t-431 -119.5h-168v-569h-184zM383 727h147q218 0 316 70.5t98 226.5q0 141 -91 211t-284 70h-186v-578z" />
<glyph unicode="Q" horiz-adv-x="1599" d="M125 735q0 357 175.5 553.5t502.5 196.5q318 0 495 -199.5t177 -552.5q0 -277 -111 -462t-315 -255l350 -364h-264l-283 330l-51 -2q-323 0 -499.5 197.5t-176.5 557.5zM319 733q0 -290 123 -442t359 -152q235 0 357 150t122 444q0 293 -121 441.5t-356 148.5 q-238 0 -361 -150.5t-123 -439.5z" />
<glyph unicode="R" horiz-adv-x="1274" d="M199 0v1462h403q272 0 402.5 -103.5t130.5 -311.5q0 -291 -293 -392l401 -655h-215l-354 604h-291v-604h-184zM383 760h219q178 0 260 70t82 208t-83 201.5t-269 63.5h-209v-543z" />
<glyph unicode="S" horiz-adv-x="1124" d="M104 49v176q93 -40 203.5 -63t206.5 -23q164 0 247 63t83 173q0 73 -30 120t-100.5 88t-213.5 93q-203 74 -290 174.5t-87 259.5q0 171 128.5 272t338.5 101q219 0 403 -82l-57 -158q-188 78 -350 78q-130 0 -203.5 -56t-73.5 -157q0 -72 28.5 -119.5t92 -86.5t199.5 -89 q163 -60 243 -116.5t118 -130t38 -175.5q0 -191 -138 -301t-384 -110q-260 0 -402 69z" />
<glyph unicode="T" horiz-adv-x="1139" d="M20 1300v162h1096v-162h-454v-1300h-185v1300h-457z" />
<glyph unicode="U" horiz-adv-x="1497" d="M184 520v942h185v-948q0 -179 95.5 -277t287.5 -98q181 0 278.5 97t97.5 280v946h183v-946q0 -250 -151 -393t-419 -143q-265 0 -411 144.5t-146 395.5z" />
<glyph unicode="V" horiz-adv-x="1229" d="M0 1462h193l329 -938q63 -178 92 -319q25 126 93 323l327 934h195l-522 -1462h-185z" />
<glyph unicode="W" horiz-adv-x="1905" d="M25 1462h192l227 -893q46 -175 70 -348q22 164 78 359l258 882h190l269 -889q52 -173 80 -352q16 138 71 350l226 891h192l-389 -1462h-186l-285 958q-63 214 -74 289q-16 -115 -70 -295l-276 -952h-186z" />
<glyph unicode="X" horiz-adv-x="1200" d="M8 0l486 762l-455 700h205l358 -573l361 573h194l-452 -696l487 -766h-209l-387 635l-393 -635h-195z" />
<glyph unicode="Y" horiz-adv-x="1159" d="M0 1462h201l379 -719l381 719h198l-487 -895v-567h-185v559z" />
<glyph unicode="Z" horiz-adv-x="1171" d="M78 0v139l770 1159h-746v164h969v-139l-770 -1159h791v-164h-1014z" />
<glyph unicode="[" horiz-adv-x="729" d="M221 -339v2043h397v-143h-232v-1757h232v-143h-397zM448 1836zM453 1274zM479 -548z" />
<glyph unicode="\" horiz-adv-x="879" d="M86 1703h168l539 -2042h-168zM448 1836zM453 1274zM479 -548z" />
<glyph unicode="]" horiz-adv-x="729" d="M110 -196h231v1756h-231v143h398v-2042h-398v143zM248 1836zM253 1274zM479 -548z" />
<glyph unicode="^" d="M60 549l459 924h102l447 -924h-161l-337 735l-349 -735h-161z" />
<glyph unicode="_" horiz-adv-x="842" d="M-4 -184h850v-140h-850v140z" />
<glyph unicode="`" horiz-adv-x="1188" d="M387 1548v21h215q32 -66 91 -157.5t106 -145.5v-25h-121q-75 60 -164.5 155.5t-126.5 151.5z" />
<glyph unicode="a" horiz-adv-x="1149" d="M94 305q0 334 527 350l186 7v65q0 125 -54 184.5t-173 59.5q-87 0 -164.5 -26t-145.5 -58l-55 135q83 44 181 69t194 25q199 0 296 -88t97 -280v-748h-131l-35 156h-8q-82 -103 -163.5 -139.5t-205.5 -36.5q-162 0 -254 85t-92 240zM281 303q0 -86 52.5 -132t147.5 -46 q151 0 237.5 81.5t86.5 231.5v99l-162 -7q-189 -7 -275.5 -60t-86.5 -167z" />
<glyph unicode="b" horiz-adv-x="1260" d="M174 0v1556h180v-378q0 -113 -10 -226h10q111 164 340 164q217 0 335 -149.5t118 -417.5q0 -272 -120 -420.5t-333 -148.5q-111 0 -198 40t-142 119h-14q-31 -120 -37 -139h-129zM354 547q0 -225 73.5 -321.5t240.5 -96.5q148 0 220.5 108.5t72.5 313.5q0 208 -73 312 t-224 104q-166 0 -238 -94t-72 -318v-8z" />
<glyph unicode="c" horiz-adv-x="983" d="M113 543q0 276 133.5 425.5t380.5 149.5q80 0 158.5 -16.5t129.5 -42.5l-55 -150q-139 52 -237 52q-166 0 -245 -104.5t-79 -311.5q0 -199 79 -304.5t234 -105.5q145 0 285 64v-160q-114 -59 -283 -59q-237 0 -369 145.5t-132 417.5z" />
<glyph unicode="d" horiz-adv-x="1260" d="M113 547q0 269 118.5 420t333.5 151q221 0 340 -162h13q-3 20 -8 80.5t-5 81.5v438h180v-1556h-145l-27 147h-8q-115 -167 -342 -167q-214 0 -332 148t-118 419zM299 543q0 -204 75.5 -309t217.5 -105q164 0 239.5 89.5t75.5 293.5v33q0 229 -76.5 326.5t-240.5 97.5 q-139 0 -215 -110.5t-76 -315.5z" />
<glyph unicode="e" horiz-adv-x="1155" d="M113 541q0 264 131 420.5t354 156.5q207 0 330 -133.5t123 -361.5v-109h-752q5 -187 95 -284t255 -97q88 0 167 15.5t185 60.5v-158q-91 -39 -171 -55t-189 -16q-247 0 -387.5 149.5t-140.5 411.5zM303 657h559q-2 154 -71 234t-195 80q-129 0 -204 -83t-89 -231z" />
<glyph unicode="f" horiz-adv-x="705" d="M31 958v84l192 62v63q0 200 87.5 300t269.5 100q105 0 213 -37l-48 -141q-93 30 -163 30q-91 0 -135 -60t-44 -190v-71h277v-140h-277v-958h-180v958h-192z" />
<glyph unicode="g" horiz-adv-x="1260" d="M113 547q0 265 120.5 418t329.5 153q223 0 344 -166h11l24 146h143v-1116q0 -236 -119.5 -355t-371.5 -119q-240 0 -395 70v166q160 -86 405 -86q140 0 221.5 82t81.5 227v43l6 135h-8q-111 -165 -340 -165q-213 0 -332.5 148.5t-119.5 418.5zM299 545q0 -204 73.5 -311 t219.5 -107q166 0 241.5 89.5t75.5 287.5v43q0 220 -76 320t-245 100q-138 0 -213.5 -109.5t-75.5 -312.5z" />
<glyph unicode="h" horiz-adv-x="1266" d="M174 0v1556h180v-456q0 -90 -10 -154h12q49 80 139 125t203 45q200 0 301 -95.5t101 -305.5v-715h-178v702q0 134 -59.5 199.5t-186.5 65.5q-167 0 -244.5 -93t-77.5 -307v-567h-180z" />
<glyph unicode="i" horiz-adv-x="528" d="M160 1395q0 60 30.5 87t75.5 27q42 0 73.5 -27t31.5 -87q0 -59 -31.5 -87t-73.5 -28q-45 0 -75.5 28t-30.5 87zM174 0v1098h180v-1098h-180z" />
<glyph unicode="j" horiz-adv-x="528" d="M-113 -322q69 -20 136 -20q78 0 114.5 42.5t36.5 129.5v1268h180v-1262q0 -164 -78.5 -246t-230.5 -82q-94 0 -158 25v145zM160 1395q0 60 30.5 87t75.5 27q42 0 73.5 -27t31.5 -87q0 -59 -31.5 -87t-73.5 -28q-45 0 -75.5 28t-30.5 87z" />
<glyph unicode="k" horiz-adv-x="1094" d="M174 0v1556h178v-813l-8 -178h8l61 78l70 84l351 371h210l-444 -469l475 -629h-217l-381 512l-125 -109v-403h-178z" />
<glyph unicode="l" horiz-adv-x="528" d="M174 0v1556h180v-1556h-180z" />
<glyph unicode="m" horiz-adv-x="1915" d="M174 0v1098h145l27 -150h10q47 80 132.5 125t191.5 45q258 0 336 -184h10q53 88 144.5 136t207.5 48q186 0 278.5 -96t92.5 -307v-715h-178v707q0 260 -223 260q-153 0 -225 -89t-72 -272v-606h-179v707q0 130 -54.5 195t-170.5 65q-152 0 -222.5 -93t-70.5 -305v-569 h-180z" />
<glyph unicode="n" horiz-adv-x="1266" d="M174 0v1098h145l27 -150h10q51 81 143 125.5t203 44.5q202 0 300 -98t98 -305v-715h-178v702q0 134 -59.5 199.5t-186.5 65.5q-169 0 -245.5 -93.5t-76.5 -304.5v-569h-180z" />
<glyph unicode="o" horiz-adv-x="1239" d="M113 551q0 268 134 417.5t376 149.5q232 0 368.5 -152.5t136.5 -414.5q0 -269 -136 -420t-376 -151q-149 0 -264 69.5t-177 199.5t-62 302zM299 551q0 -207 81.5 -314.5t240.5 -107.5q157 0 239 107.5t82 314.5t-82.5 311.5t-241.5 104.5q-319 0 -319 -416z" />
<glyph unicode="p" horiz-adv-x="1260" d="M174 -492v1590h148l24 -150h8q64 90 148 130t194 40q214 0 332.5 -148.5t118.5 -418.5q0 -269 -119 -420t-334 -151q-221 0 -340 159h-12l4 -41q8 -78 8 -139v-451h-180zM354 551q0 -223 74 -322.5t240 -99.5q138 0 215.5 112t77.5 312q0 201 -77.5 307.5t-219.5 106.5 q-163 0 -235.5 -92t-74.5 -289v-35z" />
<glyph unicode="q" horiz-adv-x="1260" d="M113 547q0 268 119.5 419.5t332.5 151.5q225 0 342 -170h8l27 150h143v-1590h-180v469q0 110 10 170h-12q-115 -167 -344 -167q-212 0 -329 150t-117 417zM299 543q0 -201 74.5 -307.5t220.5 -106.5q161 0 235 88t78 291v37q0 227 -76 325.5t-241 98.5q-141 0 -216 -111 t-75 -315z" />
<glyph unicode="r" horiz-adv-x="846" d="M174 0v1098h148l20 -201h8q63 109 149 165t187 56q73 0 129 -12l-22 -166q-61 14 -119 14q-87 0 -161.5 -48t-116.5 -132.5t-42 -187.5v-586h-180z" />
<glyph unicode="s" horiz-adv-x="981" d="M104 827q0 135 110 213t302 78q187 0 350 -74l-61 -143q-167 70 -301 70q-112 0 -170 -35.5t-58 -97.5q0 -60 50 -99.5t233 -109.5q137 -51 202.5 -95t96.5 -99t31 -132q0 -154 -115 -238.5t-323 -84.5q-217 0 -345 69v164q181 -88 349 -88q136 0 198 44t62 118 q0 65 -59.5 110t-211.5 103q-155 60 -218 102.5t-92.5 95.5t-29.5 129z" />
<glyph unicode="t" horiz-adv-x="739" d="M33 958v86l157 72l72 234h107v-252h317v-140h-317v-634q0 -95 45.5 -146t126.5 -51q35 0 82 7t71 16v-138q-25 -11 -77.5 -21.5t-106.5 -10.5q-322 0 -322 339v639h-155z" />
<glyph unicode="u" horiz-adv-x="1266" d="M162 379v719h182v-707q0 -133 59.5 -197.5t184.5 -64.5q169 0 246 94t77 303v572h181v-1098h-148l-26 145h-9q-49 -79 -139 -122t-209 -43q-198 0 -298.5 95t-100.5 304z" />
<glyph unicode="v" horiz-adv-x="1040" d="M0 1098h193l233 -647q69 -195 88 -291h8q3 13 7.5 29.5t10.5 36t74 225.5l234 647h192l-417 -1098h-207z" />
<glyph unicode="w" horiz-adv-x="1610" d="M23 1098h186q104 -405 158.5 -616t64.5 -298h8l14 62q31 143 60 233l195 619h196l189 -619q10 -35 21.5 -74.5t21.5 -78t18 -75t12 -65.5h9q9 76 73 326l154 586h184l-305 -1098h-211l-188 618q-26 77 -76 291h-8q-42 -195 -74 -293l-197 -616h-204z" />
<glyph unicode="x" horiz-adv-x="1083" d="M37 0l397 561l-379 537h205l283 -414l280 414h203l-379 -537l400 -561h-205l-299 438l-303 -438h-203z" />
<glyph unicode="y" horiz-adv-x="1044" d="M2 1098h193l237 -625q75 -204 92 -299h8q9 37 41 138.5t54 162.5l223 623h194l-473 -1250q-69 -182 -164 -261t-235 -79q-75 0 -149 17v143q50 -12 120 -12q86 0 146 47.5t98 146.5l57 146z" />
<glyph unicode="z" horiz-adv-x="963" d="M80 0v119l590 839h-555v140h753v-135l-581 -824h596v-139h-803z" />
<glyph unicode="{" horiz-adv-x="800" d="M90 606v152q122 0 186.5 42t64.5 143v473q0 76 26.5 130t73 88.5t110.5 51t140 17.5v-146q-43 -1 -77 -7.5t-57.5 -23.5t-36.5 -47t-13 -77v-471q0 -103 -55 -163.5t-161 -80.5v-11q106 -20 161 -79.5t55 -163.5v-470q0 -47 13 -77t36.5 -47t57.5 -23.5t77 -7.5v-147 q-76 1 -140 17.5t-110.5 51t-73 88.5t-26.5 131v472q0 101 -64.5 143t-186.5 42zM248 1836zM253 1274zM479 -548z" />
<glyph unicode="|" horiz-adv-x="1105" d="M348 1836zM353 1274zM479 -339v2042h147v-2042h-147zM479 -548z" />
<glyph unicode="}" horiz-adv-x="770" d="M110 -192q42 1 76.5 7.5t58 23.5t36 47t12.5 77v470q0 104 55 163.5t162 79.5v11q-107 20 -162 80.5t-55 163.5v471q0 47 -12.5 77t-36 47t-58 23.5t-76.5 7.5v146q75 -1 139.5 -17.5t111 -51t73 -88.5t26.5 -130v-473q0 -51 16 -86t48 -57t79 -32t108 -10v-152 q-123 0 -187 -42t-64 -143v-472q0 -77 -26.5 -131t-73 -88.5t-111 -51t-139.5 -17.5v147zM479 -548zM548 1836zM553 1274z" />
<glyph unicode="~" d="M102 525v162q100 108 248 108q29 0 54 -2.5t52.5 -9t61 -19t80.5 -32.5q37 -16 64.5 -27t51 -17.5t43.5 -9t42 -2.5q28 0 58 9.5t59.5 26t57.5 38.5t52 47v-162q-99 -108 -248 -108q-29 0 -54 2.5t-52.5 9t-61 19t-80.5 32.5q-37 16 -64.5 27t-50 17.5t-43 9t-42.5 2.5 q-28 0 -58 -9.5t-59.5 -26t-57.5 -38.5t-53 -47zM453 1274z" />
<glyph unicode="&#xa1;" horiz-adv-x="551" d="M147 979q0 66 34 102.5t93 36.5t93 -36t34 -103t-32.5 -102t-94.5 -35t-94.5 34.5t-32.5 102.5zM162 -373l51 1049h119l51 -1049h-221z" />
<glyph unicode="&#xa2;" horiz-adv-x="1171" d="M186 741q0 508 398 570v172h139v-164q152 -6 270 -59l-53 -150q-143 53 -244 53q-167 0 -246 -104t-79 -316q0 -213 80 -310t237 -97q89 0 156.5 17.5t130.5 43.5v-157q-113 -57 -254 -62v-198h-137v204q-204 31 -301 169.5t-97 387.5z" />
<glyph unicode="&#xa3;" horiz-adv-x="1171" d="M66 0v152q202 47 202 288v215h-196v136h196v303q0 181 112.5 284t303.5 103q190 0 363 -84l-64 -144q-167 78 -295 78q-117 0 -178 -60.5t-61 -195.5v-284h417v-136h-417v-213q0 -96 -32.5 -164.5t-107.5 -113.5h787v-164h-1030z" />
<glyph unicode="&#xa4;" horiz-adv-x="1171" d="M121 1087l100 97l135 -131q100 71 230 71q121 0 225 -71l137 131l99 -97l-132 -137q72 -111 72 -227q0 -130 -72 -229l129 -136l-96 -96l-137 131q-103 -69 -225 -69q-132 0 -230 71l-135 -131l-98 96l133 136q-72 108 -72 227q0 117 72 225zM322 723q0 -111 76.5 -187.5 t187.5 -76.5t188.5 76t77.5 188q0 114 -77.5 191t-188.5 77q-110 0 -187 -77.5t-77 -190.5z" />
<glyph unicode="&#xa5;" horiz-adv-x="1171" d="M29 1462h190l365 -714l366 714h189l-412 -768h254v-131h-309v-168h309v-131h-309v-264h-176v264h-310v131h310v168h-310v131h250z" />
<glyph unicode="&#xa6;" d="M489 287h150v-781h-150v781zM489 776v780h150v-780h-150z" />
<glyph unicode="&#xa7;" horiz-adv-x="1051" d="M121 57v154q87 -39 182 -61.5t172 -22.5q128 0 197 37t69 108q0 61 -53 100.5t-211 100.5q-197 73 -268.5 148t-71.5 188q0 87 43 154.5t119 103.5q-74 40 -115 96t-41 140q0 123 104 193.5t300 70.5q92 0 167.5 -14t182.5 -56l-55 -137q-97 39 -165 53t-142 14 q-115 0 -169.5 -29.5t-54.5 -90.5q0 -56 58 -98t213 -97q182 -67 257.5 -143.5t75.5 -184.5q0 -180 -153 -272q151 -80 151 -225q0 -142 -118 -219.5t-328 -77.5t-346 67zM291 829q0 -51 27 -88.5t87.5 -72.5t223.5 -97q131 76 131 187q0 81 -70 135.5t-252 112.5 q-65 -18 -106 -67.5t-41 -109.5z" />
<glyph unicode="&#xa8;" horiz-adv-x="1188" d="M305 1395q0 53 28 76.5t68 23.5q39 0 68 -23.5t29 -76.5t-29 -78t-68 -25q-40 0 -68 25t-28 78zM690 1395q0 53 28 76.5t66 23.5q39 0 68 -23.5t29 -76.5t-29 -78t-68 -25q-38 0 -66 25t-28 78z" />
<glyph unicode="&#xa9;" horiz-adv-x="1704" d="M100 731q0 200 100 375t275 276t377 101q200 0 375 -100t276 -275t101 -377q0 -197 -97 -370t-272 -277t-383 -104q-207 0 -382 103.5t-272.5 276.5t-97.5 371zM209 731q0 -172 86 -321t235.5 -235.5t321.5 -86.5t321 86t235.5 235.5t86.5 321.5t-86 321t-235.5 235.5 t-321.5 86.5t-321 -86t-235.5 -235.5t-86.5 -321.5zM479 731q0 209 111 333t301 124q130 0 252 -62l-60 -125q-106 54 -190 54q-119 0 -186.5 -85.5t-67.5 -238.5q0 -157 58.5 -241t193.5 -84q95 0 215 47v-131q-60 -27 -109 -38.5t-114 -11.5q-193 0 -298.5 120t-105.5 339 z" />
<glyph unicode="&#xaa;" horiz-adv-x="731" d="M66 987q0 103 79 156t244 59l115 4v45q0 61 -39 91t-107 30q-100 0 -206 -53q-26 62 -46 100q122 60 256 60t201.5 -55t67.5 -177v-450h-96l-25 86q-94 -99 -234 -99q-97 0 -153.5 50t-56.5 153zM197 987q0 -98 110 -98q197 0 197 178v47l-98 -4q-111 -4 -160 -32.5 t-49 -90.5z" />
<glyph unicode="&#xab;" horiz-adv-x="1042" d="M82 526v27l344 412l129 -74l-287 -350l287 -351l-129 -75zM487 526v27l349 412l127 -74l-287 -350l287 -351l-127 -75z" />
<glyph unicode="&#xac;" horiz-adv-x="1171" d="M102 649v146h963v-533h-145v387h-818z" />
<glyph unicode="&#xad;" horiz-adv-x="659" d="M82 469v160h496v-160h-496z" />
<glyph unicode="&#xae;" horiz-adv-x="1704" d="M100 731q0 200 100 375t275 276t377 101q200 0 375 -100t276 -275t101 -377q0 -197 -97 -370t-272 -277t-383 -104q-207 0 -382 103.5t-272.5 276.5t-97.5 371zM209 731q0 -172 86 -321t235.5 -235.5t321.5 -86.5t321 86t235.5 235.5t86.5 321.5t-86 321t-235.5 235.5 t-321.5 86.5t-321 -86t-235.5 -235.5t-86.5 -321.5zM571 283v895h263q168 0 245.5 -65.5t77.5 -199.5q0 -83 -43 -143.5t-117 -89.5l238 -397h-176l-205 354h-127v-354h-156zM727 764h102q81 0 125.5 40t44.5 105q0 73 -41 105.5t-131 32.5h-100v-283z" />
<glyph unicode="&#xaf;" horiz-adv-x="696" d="M100 524v168h496v-168h-496zM453 1274z" />
<glyph unicode="&#xb0;" horiz-adv-x="877" d="M123 1167q0 135 92 225.5t223 90.5q133 0 224.5 -92t91.5 -224q0 -131 -92 -222t-224 -91q-130 0 -222.5 89.5t-92.5 223.5zM246 1167q0 -79 57.5 -135.5t136.5 -56.5q81 0 136 57t55 135q0 80 -55 136.5t-136 56.5q-80 0 -137 -56t-57 -137z" />
<glyph unicode="&#xb1;" horiz-adv-x="1171" d="M102 0v145h963v-145h-963zM102 655v146h408v424h147v-424h408v-146h-408v-422h-147v422h-408z" />
<glyph unicode="&#xb2;" horiz-adv-x="717" d="M49 586v110l236 230q127 123 162.5 179.5t35.5 125.5q0 65 -37.5 98t-99.5 33t-112 -24t-103 -64l-72 94q133 113 289 113q132 0 206.5 -65.5t74.5 -176.5q0 -46 -12.5 -85.5t-38.5 -80t-67.5 -86.5t-283.5 -274h400v-127h-578z" />
<glyph unicode="&#xb3;" horiz-adv-x="717" d="M35 627v129q142 -70 270 -70q205 0 205 156q0 141 -225 141h-117v113h117q103 0 150.5 39t47.5 104q0 59 -38.5 92t-104.5 33q-104 0 -227 -78l-74 94q74 55 146 78t153 23q136 0 214.5 -60.5t78.5 -165.5q0 -151 -152 -208q178 -44 178 -209q0 -127 -92 -198t-262 -71 q-152 0 -268 58z" />
<glyph unicode="&#xb4;" horiz-adv-x="1188" d="M387 1241v25q38 48 96.5 136.5t98.5 166.5h217v-21q-44 -64 -137 -161t-156 -146h-119z" />
<glyph unicode="&#xb5;" horiz-adv-x="1276" d="M174 -492v1590h180v-709q0 -260 246 -260q169 0 245.5 93.5t76.5 303.5v572h180v-1098h-146l-28 147h-10q-109 -167 -330 -167q-146 0 -236 92h-8q10 -74 10 -244v-320h-180z" />
<glyph unicode="&#xb6;" horiz-adv-x="1341" d="M113 1042q0 260 109 387t341 127h561v-1816h-118v1702h-209v-1702h-119v819q-62 -18 -146 -18q-216 0 -317.5 125t-101.5 376z" />
<glyph unicode="&#xb7;" horiz-adv-x="549" d="M147 723q0 65 32.5 102t92.5 37q62 0 95.5 -37.5t33.5 -101.5t-34 -101.5t-95 -37.5q-59 0 -92 37t-33 102z" />
<glyph unicode="&#xb8;" horiz-adv-x="461" d="M29 -369q36 -10 108 -10q75 0 113.5 19.5t38.5 70.5q0 89 -187 113l88 176h119l-53 -109q178 -38 178 -176q0 -99 -75.5 -153t-227.5 -54q-65 0 -102 11v112z" />
<glyph unicode="&#xb9;" horiz-adv-x="717" d="M76 1274l266 188h150v-876h-146v565q0 67 8 182q-31 -28 -54 -47t-153 -112z" />
<glyph unicode="&#xba;" horiz-adv-x="770" d="M66 1133q0 165 84 255.5t237 90.5q149 0 234.5 -91t85.5 -255q0 -163 -86.5 -256t-237.5 -93q-145 0 -231 92.5t-86 256.5zM195 1133q0 -121 44 -180.5t146 -59.5q100 0 145 59.5t45 180.5t-45 179t-145 58t-145 -58t-45 -179z" />
<glyph unicode="&#xbb;" horiz-adv-x="1042" d="M80 190l287 351l-287 350l127 74l346 -412v-27l-346 -411zM485 190l287 351l-287 350l127 74l349 -412v-27l-349 -411z" />
<glyph unicode="&#xbc;" horiz-adv-x="1618" d="M71 1274l266 188h150v-876h-146v565q0 67 8 182q-31 -28 -54 -47t-153 -112zM258 0l893 1462h153l-893 -1462h-153zM829 197v107l404 579h149v-563h125v-123h-125v-196h-153v196h-400zM973 320h256v191q0 107 6 207q-8 -18 -98 -158z" />
<glyph unicode="&#xbd;" horiz-adv-x="1618" d="M46 1274l266 188h150v-876h-146v565q0 67 8 182q-31 -28 -54 -47t-153 -112zM197 0l893 1462h153l-893 -1462h-153zM911 1v110l236 230q127 123 162.5 179.5t35.5 125.5q0 65 -37.5 98t-99.5 33t-112 -24t-103 -64l-72 94q133 113 289 113q132 0 206.5 -65.5t74.5 -176.5 q0 -46 -12.5 -85.5t-38.5 -80t-67.5 -86.5t-283.5 -274h400v-127h-578z" />
<glyph unicode="&#xbe;" horiz-adv-x="1618" d="M32 627v129q142 -70 270 -70q205 0 205 156q0 141 -225 141h-117v113h117q103 0 150.5 39t47.5 104q0 59 -38.5 92t-104.5 33q-104 0 -227 -78l-74 94q74 55 146 78t153 23q136 0 214.5 -60.5t78.5 -165.5q0 -151 -152 -208q178 -44 178 -209q0 -127 -92 -198t-262 -71 q-152 0 -268 58zM348 0l893 1462h153l-893 -1462h-153zM903 197v107l404 579h149v-563h125v-123h-125v-196h-153v196h-400zM1047 320h256v191q0 107 6 207q-8 -18 -98 -158z" />
<glyph unicode="&#xbf;" horiz-adv-x="889" d="M51 -37q0 73 20 129.5t61 107.5t161 154q103 90 133.5 145.5t30.5 143.5v33h145v-53q0 -117 -37 -192t-137 -159q-133 -111 -168 -166t-35 -139q0 -96 63.5 -150.5t182.5 -54.5q159 0 330 88l63 -145q-198 -98 -399 -98q-194 0 -304 93.5t-110 262.5zM397 979 q0 73 36.5 106t88.5 33q54 0 90.5 -33t36.5 -106q0 -137 -127 -137q-62 0 -93.5 35.5t-31.5 101.5z" />
<glyph unicode="&#xc0;" horiz-adv-x="1309" d="M0 0l571 1468h166l570 -1468h-191l-176 453h-580l-174 -453h-186zM333 1886v21h215q32 -66 91 -157.5t106 -145.5v-25h-121q-75 60 -164.5 155.5t-126.5 151.5zM422 616h463l-164 443l-70 219q-30 -120 -63 -219z" />
<glyph unicode="&#xc1;" horiz-adv-x="1309" d="M0 0l571 1468h166l570 -1468h-191l-176 453h-580l-174 -453h-186zM422 616h463l-164 443l-70 219q-30 -120 -63 -219zM526 1579v25q38 48 96.5 136.5t98.5 166.5h217v-21q-44 -64 -137 -161t-156 -146h-119z" />
<glyph unicode="&#xc2;" horiz-adv-x="1309" d="M0 0l571 1468h166l570 -1468h-191l-176 453h-580l-174 -453h-186zM299 1579v23q125 134 176.5 198t75.5 107h184q52 -101 256 -305v-23h-127q-90 53 -223 184q-131 -128 -219 -184h-123zM422 616h463l-164 443l-70 219q-30 -120 -63 -219z" />
<glyph unicode="&#xc3;" horiz-adv-x="1309" d="M0 0l571 1468h166l570 -1468h-191l-176 453h-580l-174 -453h-186zM270 1579q12 122 70 192t155 70q45 0 87.5 -18.5t81.5 -40t75 -40t68 -18.5q48 0 72.5 29.5t39.5 89.5h103q-12 -119 -70 -190.5t-154 -71.5q-43 0 -84 18.5t-80.5 40t-76 40t-70.5 18.5q-49 0 -74 -29.5 t-39 -89.5h-104zM422 616h463l-164 443l-70 219q-30 -120 -63 -219z" />
<glyph unicode="&#xc4;" horiz-adv-x="1309" d="M0 0l571 1468h166l570 -1468h-191l-176 453h-580l-174 -453h-186zM362 1733q0 53 28 76.5t68 23.5q39 0 68 -23.5t29 -76.5t-29 -78t-68 -25q-40 0 -68 25t-28 78zM422 616h463l-164 443l-70 219q-30 -120 -63 -219zM747 1733q0 53 28 76.5t66 23.5q39 0 68 -23.5 t29 -76.5t-29 -78t-68 -25q-38 0 -66 25t-28 78z" />
<glyph unicode="&#xc5;" horiz-adv-x="1309" d="M0 0l539 1386q-53 25 -83 75t-30 122q0 98 60 156.5t163 58.5q102 0 165 -59t63 -154q0 -69 -30 -118.5t-81 -73.5l541 -1393h-191l-176 453h-580l-174 -453h-186zM422 616h463l-164 443l-70 219q-30 -120 -63 -219zM535 1583q0 -54 29 -84.5t85 -30.5q51 0 83 30.5 t32 84.5t-32.5 84.5t-82.5 30.5q-49 0 -81.5 -30.5t-32.5 -84.5z" />
<glyph unicode="&#xc6;" horiz-adv-x="1804" d="M-2 0l694 1462h989v-162h-577v-456h538v-160h-538v-522h577v-162h-761v453h-512l-220 -453h-190zM479 616h441v682h-119z" />
<glyph unicode="&#xc7;" horiz-adv-x="1294" d="M125 733q0 226 83.5 396t243 262t375.5 92q232 0 404 -86l-74 -156q-175 80 -332 80q-236 0 -371 -158t-135 -432q0 -283 131 -436.5t373 -153.5q156 0 351 58v-160q-93 -34 -179 -46.5t-198 -12.5q-323 0 -497.5 196.5t-174.5 556.5zM545 -369q36 -10 108 -10 q75 0 113.5 19.5t38.5 70.5q0 89 -187 113l88 176h119l-53 -109q178 -38 178 -176q0 -99 -75.5 -153t-227.5 -54q-65 0 -102 11v112z" />
<glyph unicode="&#xc8;" horiz-adv-x="1139" d="M199 0v1462h817v-162h-633v-456h596v-160h-596v-522h633v-162h-817zM314 1886v21h215q32 -66 91 -157.5t106 -145.5v-25h-121q-75 60 -164.5 155.5t-126.5 151.5z" />
<glyph unicode="&#xc9;" horiz-adv-x="1139" d="M199 0v1462h817v-162h-633v-456h596v-160h-596v-522h633v-162h-817zM453 1579v25q38 48 96.5 136.5t98.5 166.5h217v-21q-44 -64 -137 -161t-156 -146h-119z" />
<glyph unicode="&#xca;" horiz-adv-x="1139" d="M199 0v1462h817v-162h-633v-456h596v-160h-596v-522h633v-162h-817zM255 1579v23q125 134 176.5 198t75.5 107h184q52 -101 256 -305v-23h-127q-90 53 -223 184q-131 -128 -219 -184h-123z" />
<glyph unicode="&#xcb;" horiz-adv-x="1139" d="M199 0v1462h817v-162h-633v-456h596v-160h-596v-522h633v-162h-817zM319 1733q0 53 28 76.5t68 23.5q39 0 68 -23.5t29 -76.5t-29 -78t-68 -25q-40 0 -68 25t-28 78zM704 1733q0 53 28 76.5t66 23.5q39 0 68 -23.5t29 -76.5t-29 -78t-68 -25q-38 0 -66 25t-28 78z" />
<glyph unicode="&#xcc;" horiz-adv-x="694" d="M60 1886v21h215q32 -66 91 -157.5t106 -145.5v-25h-121q-75 60 -164.5 155.5t-126.5 151.5zM82 0v106l172 39v1170l-172 41v106h528v-106l-172 -41v-1170l172 -39v-106h-528z" />
<glyph unicode="&#xcd;" horiz-adv-x="694" d="M82 0v106l172 39v1170l-172 41v106h528v-106l-172 -41v-1170l172 -39v-106h-528zM236 1579v25q38 48 96.5 136.5t98.5 166.5h217v-21q-44 -64 -137 -161t-156 -146h-119z" />
<glyph unicode="&#xce;" horiz-adv-x="694" d="M-3 1579v23q125 134 176.5 198t75.5 107h184q52 -101 256 -305v-23h-127q-90 53 -223 184q-131 -128 -219 -184h-123zM82 0v106l172 39v1170l-172 41v106h528v-106l-172 -41v-1170l172 -39v-106h-528z" />
<glyph unicode="&#xcf;" horiz-adv-x="694" d="M60 1733q0 53 28 76.5t68 23.5q39 0 68 -23.5t29 -76.5t-29 -78t-68 -25q-40 0 -68 25t-28 78zM82 0v106l172 39v1170l-172 41v106h528v-106l-172 -41v-1170l172 -39v-106h-528zM445 1733q0 53 28 76.5t66 23.5q39 0 68 -23.5t29 -76.5t-29 -78t-68 -25q-38 0 -66 25 t-28 78z" />
<glyph unicode="&#xd0;" horiz-adv-x="1495" d="M61 643v160h152v659h436q341 0 531 -188.5t190 -528.5q0 -359 -196.5 -552t-569.5 -193h-391v643h-152zM397 158h185q594 0 594 581q0 280 -139 423t-414 143h-226v-502h365v-160h-365v-485z" />
<glyph unicode="&#xd1;" horiz-adv-x="1556" d="M199 0v1462h213l45 -71l480 -742l255 -397h8q-2 24 -8 171.5t-6 213.5v825h172v-1462h-215l-783 1214h-8l5 -81q12 -182 12 -316v-817h-170zM412 1579q12 122 70 192t155 70q45 0 87.5 -18.5t81.5 -40t75 -40t68 -18.5q48 0 72.5 29.5t39.5 89.5h103q-12 -119 -70 -190.5 t-154 -71.5q-43 0 -84 18.5t-80.5 40t-76 40t-70.5 18.5q-49 0 -74 -29.5t-39 -89.5h-104z" />
<glyph unicode="&#xd2;" horiz-adv-x="1599" d="M125 735q0 357 175.5 553.5t502.5 196.5q318 0 495 -199.5t177 -552.5q0 -351 -177.5 -552t-496.5 -201q-323 0 -499.5 197.5t-176.5 557.5zM319 733q0 -290 123 -442t359 -152q235 0 357 150t122 444q0 293 -121 441.5t-356 148.5q-238 0 -361 -150.5t-123 -439.5z M506 1886v21h215q32 -66 91 -157.5t106 -145.5v-25h-121q-75 60 -164.5 155.5t-126.5 151.5z" />
<glyph unicode="&#xd3;" horiz-adv-x="1599" d="M125 735q0 357 175.5 553.5t502.5 196.5q318 0 495 -199.5t177 -552.5q0 -351 -177.5 -552t-496.5 -201q-323 0 -499.5 197.5t-176.5 557.5zM319 733q0 -290 123 -442t359 -152q235 0 357 150t122 444q0 293 -121 441.5t-356 148.5q-238 0 -361 -150.5t-123 -439.5z M657 1579v25q38 48 96.5 136.5t98.5 166.5h217v-21q-44 -64 -137 -161t-156 -146h-119z" />
<glyph unicode="&#xd4;" horiz-adv-x="1599" d="M125 735q0 357 175.5 553.5t502.5 196.5q318 0 495 -199.5t177 -552.5q0 -351 -177.5 -552t-496.5 -201q-323 0 -499.5 197.5t-176.5 557.5zM319 733q0 -290 123 -442t359 -152q235 0 357 150t122 444q0 293 -121 441.5t-356 148.5q-238 0 -361 -150.5t-123 -439.5z M440 1579v23q125 134 176.5 198t75.5 107h184q52 -101 256 -305v-23h-127q-90 53 -223 184q-131 -128 -219 -184h-123z" />
<glyph unicode="&#xd5;" horiz-adv-x="1599" d="M125 735q0 357 175.5 553.5t502.5 196.5q318 0 495 -199.5t177 -552.5q0 -351 -177.5 -552t-496.5 -201q-323 0 -499.5 197.5t-176.5 557.5zM319 733q0 -290 123 -442t359 -152q235 0 357 150t122 444q0 293 -121 441.5t-356 148.5q-238 0 -361 -150.5t-123 -439.5z M416 1579q12 122 70 192t155 70q45 0 87.5 -18.5t81.5 -40t75 -40t68 -18.5q48 0 72.5 29.5t39.5 89.5h103q-12 -119 -70 -190.5t-154 -71.5q-43 0 -84 18.5t-80.5 40t-76 40t-70.5 18.5q-49 0 -74 -29.5t-39 -89.5h-104z" />
<glyph unicode="&#xd6;" horiz-adv-x="1599" d="M125 735q0 357 175.5 553.5t502.5 196.5q318 0 495 -199.5t177 -552.5q0 -351 -177.5 -552t-496.5 -201q-323 0 -499.5 197.5t-176.5 557.5zM319 733q0 -290 123 -442t359 -152q235 0 357 150t122 444q0 293 -121 441.5t-356 148.5q-238 0 -361 -150.5t-123 -439.5z M516 1733q0 53 28 76.5t68 23.5q39 0 68 -23.5t29 -76.5t-29 -78t-68 -25q-40 0 -68 25t-28 78zM901 1733q0 53 28 76.5t66 23.5q39 0 68 -23.5t29 -76.5t-29 -78t-68 -25q-38 0 -66 25t-28 78z" />
<glyph unicode="&#xd7;" d="M141 977l105 105l317 -318l322 318l104 -103l-321 -321l319 -320l-102 -102l-322 317l-317 -315l-103 103l316 317zM453 1274z" />
<glyph unicode="&#xd8;" horiz-adv-x="1599" d="M125 735q0 357 175.5 553.5t502.5 196.5q204 0 364 -92l95 135l124 -84l-104 -146q193 -203 193 -565q0 -351 -177.5 -552t-496.5 -201q-232 0 -379 96l-98 -139l-125 81l106 152q-180 198 -180 565zM319 733q0 -259 97 -405l653 923q-109 72 -266 72q-238 0 -361 -150.5 t-123 -439.5zM520 217q114 -78 281 -78q235 0 357 150t122 444q0 264 -104 414z" />
<glyph unicode="&#xd9;" horiz-adv-x="1497" d="M184 520v942h185v-948q0 -179 95.5 -277t287.5 -98q181 0 278.5 97t97.5 280v946h183v-946q0 -250 -151 -393t-419 -143q-265 0 -411 144.5t-146 395.5zM453 1886v21h215q32 -66 91 -157.5t106 -145.5v-25h-121q-75 60 -164.5 155.5t-126.5 151.5z" />
<glyph unicode="&#xda;" horiz-adv-x="1497" d="M184 520v942h185v-948q0 -179 95.5 -277t287.5 -98q181 0 278.5 97t97.5 280v946h183v-946q0 -250 -151 -393t-419 -143q-265 0 -411 144.5t-146 395.5zM600 1579v25q38 48 96.5 136.5t98.5 166.5h217v-21q-44 -64 -137 -161t-156 -146h-119z" />
<glyph unicode="&#xdb;" horiz-adv-x="1497" d="M184 520v942h185v-948q0 -179 95.5 -277t287.5 -98q181 0 278.5 97t97.5 280v946h183v-946q0 -250 -151 -393t-419 -143q-265 0 -411 144.5t-146 395.5zM387 1579v23q125 134 176.5 198t75.5 107h184q52 -101 256 -305v-23h-127q-90 53 -223 184q-131 -128 -219 -184 h-123z" />
<glyph unicode="&#xdc;" horiz-adv-x="1497" d="M184 520v942h185v-948q0 -179 95.5 -277t287.5 -98q181 0 278.5 97t97.5 280v946h183v-946q0 -250 -151 -393t-419 -143q-265 0 -411 144.5t-146 395.5zM457 1733q0 53 28 76.5t68 23.5q39 0 68 -23.5t29 -76.5t-29 -78t-68 -25q-40 0 -68 25t-28 78zM842 1733 q0 53 28 76.5t66 23.5q39 0 68 -23.5t29 -76.5t-29 -78t-68 -25q-38 0 -66 25t-28 78z" />
<glyph unicode="&#xdd;" horiz-adv-x="1159" d="M0 1462h201l379 -719l381 719h198l-487 -895v-567h-185v559zM442 1579v25q38 48 96.5 136.5t98.5 166.5h217v-21q-44 -64 -137 -161t-156 -146h-119z" />
<glyph unicode="&#xde;" horiz-adv-x="1239" d="M199 0v1462h184v-254h197q281 0 418 -105.5t137 -320.5q0 -226 -150.5 -345.5t-435.5 -119.5h-166v-317h-184zM383 473h147q221 0 317.5 71t96.5 228q0 144 -91 211.5t-288 67.5h-182v-578z" />
<glyph unicode="&#xdf;" horiz-adv-x="1292" d="M174 0v1196q0 181 114 276t339 95q210 0 326 -80t116 -223q0 -139 -143 -251q-79 -62 -111.5 -98.5t-32.5 -70.5q0 -40 32 -73t149 -109q137 -92 187 -170.5t50 -178.5q0 -161 -98.5 -247t-282.5 -86q-187 0 -297 69v162q64 -40 143.5 -63t147.5 -23q211 0 211 176 q0 71 -40.5 123t-152.5 123q-118 75 -170.5 137.5t-52.5 149.5q0 63 34 115.5t106 105.5q74 55 106.5 101t32.5 97q0 78 -66.5 121t-193.5 43q-273 0 -273 -221v-1196h-180z" />
<glyph unicode="&#xe0;" horiz-adv-x="1149" d="M94 305q0 334 527 350l186 7v65q0 125 -54 184.5t-173 59.5q-87 0 -164.5 -26t-145.5 -58l-55 135q83 44 181 69t194 25q199 0 296 -88t97 -280v-748h-131l-35 156h-8q-82 -103 -163.5 -139.5t-205.5 -36.5q-162 0 -254 85t-92 240zM275 1548v21h215q32 -66 91 -157.5 t106 -145.5v-25h-121q-75 60 -164.5 155.5t-126.5 151.5zM281 303q0 -86 52.5 -132t147.5 -46q151 0 237.5 81.5t86.5 231.5v99l-162 -7q-189 -7 -275.5 -60t-86.5 -167z" />
<glyph unicode="&#xe1;" horiz-adv-x="1149" d="M94 305q0 334 527 350l186 7v65q0 125 -54 184.5t-173 59.5q-87 0 -164.5 -26t-145.5 -58l-55 135q83 44 181 69t194 25q199 0 296 -88t97 -280v-748h-131l-35 156h-8q-82 -103 -163.5 -139.5t-205.5 -36.5q-162 0 -254 85t-92 240zM281 303q0 -86 52.5 -132t147.5 -46 q151 0 237.5 81.5t86.5 231.5v99l-162 -7q-189 -7 -275.5 -60t-86.5 -167zM436 1241v25q38 48 96.5 136.5t98.5 166.5h217v-21q-44 -64 -137 -161t-156 -146h-119z" />
<glyph unicode="&#xe2;" horiz-adv-x="1149" d="M94 305q0 334 527 350l186 7v65q0 125 -54 184.5t-173 59.5q-87 0 -164.5 -26t-145.5 -58l-55 135q83 44 181 69t194 25q199 0 296 -88t97 -280v-748h-131l-35 156h-8q-82 -103 -163.5 -139.5t-205.5 -36.5q-162 0 -254 85t-92 240zM224 1241v23q125 134 176.5 198 t75.5 107h184q52 -101 256 -305v-23h-127q-90 53 -223 184q-131 -128 -219 -184h-123zM281 303q0 -86 52.5 -132t147.5 -46q151 0 237.5 81.5t86.5 231.5v99l-162 -7q-189 -7 -275.5 -60t-86.5 -167z" />
<glyph unicode="&#xe3;" horiz-adv-x="1149" d="M94 305q0 334 527 350l186 7v65q0 125 -54 184.5t-173 59.5q-87 0 -164.5 -26t-145.5 -58l-55 135q83 44 181 69t194 25q199 0 296 -88t97 -280v-748h-131l-35 156h-8q-82 -103 -163.5 -139.5t-205.5 -36.5q-162 0 -254 85t-92 240zM200 1241q12 122 70 192t155 70 q45 0 87.5 -18.5t81.5 -40t75 -40t68 -18.5q48 0 72.5 29.5t39.5 89.5h103q-12 -119 -70 -190.5t-154 -71.5q-43 0 -84 18.5t-80.5 40t-76 40t-70.5 18.5q-49 0 -74 -29.5t-39 -89.5h-104zM281 303q0 -86 52.5 -132t147.5 -46q151 0 237.5 81.5t86.5 231.5v99l-162 -7 q-189 -7 -275.5 -60t-86.5 -167z" />
<glyph unicode="&#xe4;" horiz-adv-x="1149" d="M94 305q0 334 527 350l186 7v65q0 125 -54 184.5t-173 59.5q-87 0 -164.5 -26t-145.5 -58l-55 135q83 44 181 69t194 25q199 0 296 -88t97 -280v-748h-131l-35 156h-8q-82 -103 -163.5 -139.5t-205.5 -36.5q-162 0 -254 85t-92 240zM279 1395q0 53 28 76.5t68 23.5 q39 0 68 -23.5t29 -76.5t-29 -78t-68 -25q-40 0 -68 25t-28 78zM281 303q0 -86 52.5 -132t147.5 -46q151 0 237.5 81.5t86.5 231.5v99l-162 -7q-189 -7 -275.5 -60t-86.5 -167zM664 1395q0 53 28 76.5t66 23.5q39 0 68 -23.5t29 -76.5t-29 -78t-68 -25q-38 0 -66 25t-28 78z " />
<glyph unicode="&#xe5;" horiz-adv-x="1149" d="M94 305q0 334 527 350l186 7v65q0 125 -54 184.5t-173 59.5q-87 0 -164.5 -26t-145.5 -58l-55 135q83 44 181 69t194 25q199 0 296 -88t97 -280v-748h-131l-35 156h-8q-82 -103 -163.5 -139.5t-205.5 -36.5q-162 0 -254 85t-92 240zM281 303q0 -86 52.5 -132t147.5 -46 q151 0 237.5 81.5t86.5 231.5v99l-162 -7q-189 -7 -275.5 -60t-86.5 -167zM362 1458q0 98 60 156.5t163 58.5q101 0 164 -59t63 -154q0 -101 -62.5 -160t-164.5 -59q-103 0 -163 58.5t-60 158.5zM470 1458q0 -54 29.5 -84.5t85.5 -30.5q51 0 82.5 30.5t31.5 84.5t-32.5 84.5 t-81.5 30.5q-50 0 -82.5 -30.5t-32.5 -84.5z" />
<glyph unicode="&#xe6;" horiz-adv-x="1769" d="M94 305q0 334 500 350l184 7v69q0 122 -56.5 181t-172.5 59q-139 0 -307 -84l-56 135q71 40 172.5 67t204.5 27q128 0 210.5 -41.5t125.5 -134.5q54 85 139 131.5t197 46.5q197 0 313.5 -135t116.5 -356v-111h-702q8 -383 317 -383q88 0 165 16.5t171 59.5v-158 q-88 -39 -164 -55t-178 -16q-291 0 -416 231q-82 -124 -181 -177.5t-235 -53.5q-164 0 -256 85.5t-92 239.5zM281 303q0 -92 52 -135t138 -43q140 0 221.5 81.5t81.5 231.5v99l-153 -7q-177 -7 -258.5 -60t-81.5 -167zM967 657h508q0 152 -62.5 233t-179.5 81 q-119 0 -187 -80.5t-79 -233.5z" />
<glyph unicode="&#xe7;" horiz-adv-x="983" d="M113 543q0 276 133.5 425.5t380.5 149.5q80 0 158.5 -16.5t129.5 -42.5l-55 -150q-139 52 -237 52q-166 0 -245 -104.5t-79 -311.5q0 -199 79 -304.5t234 -105.5q145 0 285 64v-160q-114 -59 -283 -59q-237 0 -369 145.5t-132 417.5zM361 -369q36 -10 108 -10 q75 0 113.5 19.5t38.5 70.5q0 89 -187 113l88 176h119l-53 -109q178 -38 178 -176q0 -99 -75.5 -153t-227.5 -54q-65 0 -102 11v112z" />
<glyph unicode="&#xe8;" horiz-adv-x="1155" d="M113 541q0 264 131 420.5t354 156.5q207 0 330 -133.5t123 -361.5v-109h-752q5 -187 95 -284t255 -97q88 0 167 15.5t185 60.5v-158q-91 -39 -171 -55t-189 -16q-247 0 -387.5 149.5t-140.5 411.5zM303 657h559q-2 154 -71 234t-195 80q-129 0 -204 -83t-89 -231z M312 1548v21h215q32 -66 91 -157.5t106 -145.5v-25h-121q-75 60 -164.5 155.5t-126.5 151.5z" />
<glyph unicode="&#xe9;" horiz-adv-x="1155" d="M113 541q0 264 131 420.5t354 156.5q207 0 330 -133.5t123 -361.5v-109h-752q5 -187 95 -284t255 -97q88 0 167 15.5t185 60.5v-158q-91 -39 -171 -55t-189 -16q-247 0 -387.5 149.5t-140.5 411.5zM303 657h559q-2 154 -71 234t-195 80q-129 0 -204 -83t-89 -231z M467 1241v25q38 48 96.5 136.5t98.5 166.5h217v-21q-44 -64 -137 -161t-156 -146h-119z" />
<glyph unicode="&#xea;" horiz-adv-x="1155" d="M113 541q0 264 131 420.5t354 156.5q207 0 330 -133.5t123 -361.5v-109h-752q5 -187 95 -284t255 -97q88 0 167 15.5t185 60.5v-158q-91 -39 -171 -55t-189 -16q-247 0 -387.5 149.5t-140.5 411.5zM253 1241v23q125 134 176.5 198t75.5 107h184q52 -101 256 -305v-23 h-127q-90 53 -223 184q-131 -128 -219 -184h-123zM303 657h559q-2 154 -71 234t-195 80q-129 0 -204 -83t-89 -231z" />
<glyph unicode="&#xeb;" horiz-adv-x="1155" d="M113 541q0 264 131 420.5t354 156.5q207 0 330 -133.5t123 -361.5v-109h-752q5 -187 95 -284t255 -97q88 0 167 15.5t185 60.5v-158q-91 -39 -171 -55t-189 -16q-247 0 -387.5 149.5t-140.5 411.5zM303 657h559q-2 154 -71 234t-195 80q-129 0 -204 -83t-89 -231z M315 1395q0 53 28 76.5t68 23.5q39 0 68 -23.5t29 -76.5t-29 -78t-68 -25q-40 0 -68 25t-28 78zM700 1395q0 53 28 76.5t66 23.5q39 0 68 -23.5t29 -76.5t-29 -78t-68 -25q-38 0 -66 25t-28 78z" />
<glyph unicode="&#xec;" horiz-adv-x="528" d="M-44 1548v21h215q32 -66 91 -157.5t106 -145.5v-25h-121q-75 60 -164.5 155.5t-126.5 151.5zM174 0v1098h180v-1098h-180z" />
<glyph unicode="&#xed;" horiz-adv-x="528" d="M167 1241v25q38 48 96.5 136.5t98.5 166.5h217v-21q-44 -64 -137 -161t-156 -146h-119zM174 0v1098h180v-1098h-180z" />
<glyph unicode="&#xee;" horiz-adv-x="528" d="M-81 1241v23q125 134 176.5 198t75.5 107h184q52 -101 256 -305v-23h-127q-90 53 -223 184q-131 -128 -219 -184h-123zM174 0v1098h180v-1098h-180z" />
<glyph unicode="&#xef;" horiz-adv-x="528" d="M-22 1395q0 53 28 76.5t68 23.5q39 0 68 -23.5t29 -76.5t-29 -78t-68 -25q-40 0 -68 25t-28 78zM174 0v1098h180v-1098h-180zM363 1395q0 53 28 76.5t66 23.5q39 0 68 -23.5t29 -76.5t-29 -78t-68 -25q-38 0 -66 25t-28 78z" />
<glyph unicode="&#xf0;" horiz-adv-x="1239" d="M113 477q0 229 129.5 360.5t351.5 131.5q225 0 319 -119l9 4q-59 214 -254 391l-267 -153l-77 112l229 131q-86 58 -184 109l73 123q156 -73 258 -148l236 137l78 -110l-203 -117q151 -140 234 -337.5t83 -428.5q0 -282 -133 -432.5t-379 -150.5q-225 0 -364 135.5 t-139 361.5zM295 471q0 -165 84 -254.5t242 -89.5q169 0 247 99t78 288q0 143 -87.5 226t-237.5 83q-166 0 -246 -86.5t-80 -265.5z" />
<glyph unicode="&#xf1;" horiz-adv-x="1266" d="M174 0v1098h145l27 -150h10q51 81 143 125.5t203 44.5q202 0 300 -98t98 -305v-715h-178v702q0 134 -59.5 199.5t-186.5 65.5q-169 0 -245.5 -93.5t-76.5 -304.5v-569h-180zM274 1241q12 122 70 192t155 70q45 0 87.5 -18.5t81.5 -40t75 -40t68 -18.5q48 0 72.5 29.5 t39.5 89.5h103q-12 -119 -70 -190.5t-154 -71.5q-43 0 -84 18.5t-80.5 40t-76 40t-70.5 18.5q-49 0 -74 -29.5t-39 -89.5h-104z" />
<glyph unicode="&#xf2;" horiz-adv-x="1239" d="M113 551q0 268 134 417.5t376 149.5q232 0 368.5 -152.5t136.5 -414.5q0 -269 -136 -420t-376 -151q-149 0 -264 69.5t-177 199.5t-62 302zM299 551q0 -207 81.5 -314.5t240.5 -107.5q157 0 239 107.5t82 314.5t-82.5 311.5t-241.5 104.5q-319 0 -319 -416zM339 1548v21 h215q32 -66 91 -157.5t106 -145.5v-25h-121q-75 60 -164.5 155.5t-126.5 151.5z" />
<glyph unicode="&#xf3;" horiz-adv-x="1239" d="M113 551q0 268 134 417.5t376 149.5q232 0 368.5 -152.5t136.5 -414.5q0 -269 -136 -420t-376 -151q-149 0 -264 69.5t-177 199.5t-62 302zM299 551q0 -207 81.5 -314.5t240.5 -107.5q157 0 239 107.5t82 314.5t-82.5 311.5t-241.5 104.5q-319 0 -319 -416zM477 1241v25 q38 48 96.5 136.5t98.5 166.5h217v-21q-44 -64 -137 -161t-156 -146h-119z" />
<glyph unicode="&#xf4;" horiz-adv-x="1239" d="M113 551q0 268 134 417.5t376 149.5q232 0 368.5 -152.5t136.5 -414.5q0 -269 -136 -420t-376 -151q-149 0 -264 69.5t-177 199.5t-62 302zM272 1241v23q125 134 176.5 198t75.5 107h184q52 -101 256 -305v-23h-127q-90 53 -223 184q-131 -128 -219 -184h-123zM299 551 q0 -207 81.5 -314.5t240.5 -107.5q157 0 239 107.5t82 314.5t-82.5 311.5t-241.5 104.5q-319 0 -319 -416z" />
<glyph unicode="&#xf5;" horiz-adv-x="1239" d="M113 551q0 268 134 417.5t376 149.5q232 0 368.5 -152.5t136.5 -414.5q0 -269 -136 -420t-376 -151q-149 0 -264 69.5t-177 199.5t-62 302zM247 1241q12 122 70 192t155 70q45 0 87.5 -18.5t81.5 -40t75 -40t68 -18.5q48 0 72.5 29.5t39.5 89.5h103q-12 -119 -70 -190.5 t-154 -71.5q-43 0 -84 18.5t-80.5 40t-76 40t-70.5 18.5q-49 0 -74 -29.5t-39 -89.5h-104zM299 551q0 -207 81.5 -314.5t240.5 -107.5q157 0 239 107.5t82 314.5t-82.5 311.5t-241.5 104.5q-319 0 -319 -416z" />
<glyph unicode="&#xf6;" horiz-adv-x="1239" d="M113 551q0 268 134 417.5t376 149.5q232 0 368.5 -152.5t136.5 -414.5q0 -269 -136 -420t-376 -151q-149 0 -264 69.5t-177 199.5t-62 302zM299 551q0 -207 81.5 -314.5t240.5 -107.5q157 0 239 107.5t82 314.5t-82.5 311.5t-241.5 104.5q-319 0 -319 -416zM330 1395 q0 53 28 76.5t68 23.5q39 0 68 -23.5t29 -76.5t-29 -78t-68 -25q-40 0 -68 25t-28 78zM715 1395q0 53 28 76.5t66 23.5q39 0 68 -23.5t29 -76.5t-29 -78t-68 -25q-38 0 -66 25t-28 78z" />
<glyph unicode="&#xf7;" d="M102 585v150h924v-150h-924zM449 320q0 35 9 58.5t24.5 38.5t36 21.5t44.5 6.5q23 0 44 -6.5t37 -21.5t25 -38.5t9 -58.5q0 -33 -9 -56.5t-25 -39t-37 -22.5t-44 -7q-24 0 -44.5 7t-36 22.5t-24.5 39t-9 56.5zM449 1018q0 35 9 58.5t24.5 38.5t36 21.5t44.5 6.5 q23 0 44 -6.5t37 -21.5t25 -38.5t9 -58.5q0 -33 -9 -56.5t-25 -39t-37 -22.5t-44 -7q-24 0 -44.5 7t-36 22.5t-24.5 39t-9 56.5zM453 1274z" />
<glyph unicode="&#xf8;" horiz-adv-x="1239" d="M113 551q0 268 134 417.5t376 149.5q151 0 268 -74l80 115l121 -78l-93 -129q129 -155 129 -401q0 -269 -136 -420t-376 -151q-151 0 -264 67l-82 -115l-118 80l92 127q-131 156 -131 412zM299 551q0 -166 49 -262l451 626q-73 52 -181 52q-319 0 -319 -416zM444 176 q69 -47 177 -47q157 0 239 107.5t82 314.5q0 152 -47 252z" />
<glyph unicode="&#xf9;" horiz-adv-x="1266" d="M162 379v719h182v-707q0 -133 59.5 -197.5t184.5 -64.5q169 0 246 94t77 303v572h181v-1098h-148l-26 145h-9q-49 -79 -139 -122t-209 -43q-198 0 -298.5 95t-100.5 304zM325 1548v21h215q32 -66 91 -157.5t106 -145.5v-25h-121q-75 60 -164.5 155.5t-126.5 151.5z" />
<glyph unicode="&#xfa;" horiz-adv-x="1266" d="M162 379v719h182v-707q0 -133 59.5 -197.5t184.5 -64.5q169 0 246 94t77 303v572h181v-1098h-148l-26 145h-9q-49 -79 -139 -122t-209 -43q-198 0 -298.5 95t-100.5 304zM504 1241v25q38 48 96.5 136.5t98.5 166.5h217v-21q-44 -64 -137 -161t-156 -146h-119z" />
<glyph unicode="&#xfb;" horiz-adv-x="1266" d="M162 379v719h182v-707q0 -133 59.5 -197.5t184.5 -64.5q169 0 246 94t77 303v572h181v-1098h-148l-26 145h-9q-49 -79 -139 -122t-209 -43q-198 0 -298.5 95t-100.5 304zM280 1241v23q125 134 176.5 198t75.5 107h184q52 -101 256 -305v-23h-127q-90 53 -223 184 q-131 -128 -219 -184h-123z" />
<glyph unicode="&#xfc;" horiz-adv-x="1266" d="M162 379v719h182v-707q0 -133 59.5 -197.5t184.5 -64.5q169 0 246 94t77 303v572h181v-1098h-148l-26 145h-9q-49 -79 -139 -122t-209 -43q-198 0 -298.5 95t-100.5 304zM338 1395q0 53 28 76.5t68 23.5q39 0 68 -23.5t29 -76.5t-29 -78t-68 -25q-40 0 -68 25t-28 78z M723 1395q0 53 28 76.5t66 23.5q39 0 68 -23.5t29 -76.5t-29 -78t-68 -25q-38 0 -66 25t-28 78z" />
<glyph unicode="&#xfd;" horiz-adv-x="1044" d="M2 1098h193l237 -625q75 -204 92 -299h8q9 37 41 138.5t54 162.5l223 623h194l-473 -1250q-69 -182 -164 -261t-235 -79q-75 0 -149 17v143q50 -12 120 -12q86 0 146 47.5t98 146.5l57 146zM410 1241v25q38 48 96.5 136.5t98.5 166.5h217v-21q-44 -64 -137 -161 t-156 -146h-119z" />
<glyph unicode="&#xfe;" horiz-adv-x="1260" d="M174 -492v2048h180v-458q0 -70 -6 -148h8q67 91 150.5 129.5t189.5 38.5q213 0 332 -149.5t119 -417.5q0 -269 -119 -420t-332 -151q-222 0 -342 159h-12q12 -132 12 -172v-459h-180zM354 551q0 -223 74 -322.5t240 -99.5q293 0 293 424q0 208 -71.5 311t-223.5 103 q-161 0 -235.5 -89.5t-76.5 -287.5v-39z" />
<glyph unicode="&#xff;" horiz-adv-x="1044" d="M2 1098h193l237 -625q75 -204 92 -299h8q9 37 41 138.5t54 162.5l223 623h194l-473 -1250q-69 -182 -164 -261t-235 -79q-75 0 -149 17v143q50 -12 120 -12q86 0 146 47.5t98 146.5l57 146zM234 1395q0 53 28 76.5t68 23.5q39 0 68 -23.5t29 -76.5t-29 -78t-68 -25 q-40 0 -68 25t-28 78zM619 1395q0 53 28 76.5t66 23.5q39 0 68 -23.5t29 -76.5t-29 -78t-68 -25q-38 0 -66 25t-28 78z" />
<glyph unicode="&#x152;" horiz-adv-x="1901" d="M125 735q0 359 172.5 554.5t493.5 195.5q106 0 196 -23h791v-162h-588v-456h549v-160h-549v-522h588v-162h-779q-102 -20 -198 -20q-325 0 -500.5 197t-175.5 558zM317 733q0 -289 124 -441.5t364 -152.5q117 0 203 35v1116q-85 33 -201 33q-242 0 -366 -151t-124 -439z " />
<glyph unicode="&#x153;" horiz-adv-x="1937" d="M111 551q0 266 132 415.5t369 149.5q130 0 232 -57t164 -168q60 109 156 167t222 58q205 0 325 -132.5t120 -360.5v-109h-729q8 -381 332 -381q90 0 167 15.5t181 60.5v-158q-93 -40 -170 -55.5t-180 -15.5q-290 0 -418 227q-63 -113 -167.5 -170t-240.5 -57 q-226 0 -360.5 154t-134.5 417zM299 551q0 -208 73 -315t236 -107q160 0 233.5 104.5t73.5 309.5q0 214 -74.5 319t-236.5 105q-161 0 -233 -105.5t-72 -310.5zM1106 657h534q0 151 -64.5 231.5t-191.5 80.5q-123 0 -194.5 -79.5t-83.5 -232.5z" />
<glyph unicode="&#x178;" horiz-adv-x="1159" d="M0 1462h201l379 -719l381 719h198l-487 -895v-567h-185v559zM294 1733q0 53 28 76.5t68 23.5q39 0 68 -23.5t29 -76.5t-29 -78t-68 -25q-40 0 -68 25t-28 78zM679 1733q0 53 28 76.5t66 23.5q39 0 68 -23.5t29 -76.5t-29 -78t-68 -25q-38 0 -66 25t-28 78z" />
<glyph unicode="&#x2c6;" horiz-adv-x="1214" d="M260 1241v23q125 134 176.5 198t75.5 107h184q52 -101 256 -305v-23h-127q-90 53 -223 184q-131 -128 -219 -184h-123z" />
<glyph unicode="&#x2dc;" horiz-adv-x="1214" d="M258 1241q12 122 70 192t155 70q45 0 87.5 -18.5t81.5 -40t75 -40t68 -18.5q48 0 72.5 29.5t39.5 89.5h103q-12 -119 -70 -190.5t-154 -71.5q-43 0 -84 18.5t-80.5 40t-76 40t-70.5 18.5q-49 0 -74 -29.5t-39 -89.5h-104z" />
<glyph unicode="&#x2000;" horiz-adv-x="953" />
<glyph unicode="&#x2001;" horiz-adv-x="1907" />
<glyph unicode="&#x2002;" horiz-adv-x="953" />
<glyph unicode="&#x2003;" horiz-adv-x="1907" />
<glyph unicode="&#x2004;" horiz-adv-x="635" />
<glyph unicode="&#x2005;" horiz-adv-x="476" />
<glyph unicode="&#x2006;" horiz-adv-x="317" />
<glyph unicode="&#x2007;" horiz-adv-x="317" />
<glyph unicode="&#x2008;" horiz-adv-x="238" />
<glyph unicode="&#x2009;" horiz-adv-x="381" />
<glyph unicode="&#x200a;" horiz-adv-x="105" />
<glyph unicode="&#x2010;" horiz-adv-x="696" d="M100 524v168h496v-168h-496zM453 1274z" />
<glyph unicode="&#x2011;" horiz-adv-x="696" d="M100 524v168h496v-168h-496zM453 1274z" />
<glyph unicode="&#x2012;" horiz-adv-x="696" d="M100 524v168h496v-168h-496zM453 1274z" />
<glyph unicode="&#x2013;" horiz-adv-x="1024" d="M82 535v168h860v-168h-860zM453 1274z" />
<glyph unicode="&#x2014;" horiz-adv-x="2048" d="M82 535v168h1884v-168h-1884zM453 1274z" />
<glyph unicode="&#x2018;" horiz-adv-x="639" d="M168 1014q14 54 33.5 115t42.5 123t49 123.5t51 117.5h137q-15 -61 -29.5 -127t-27.5 -131.5t-24 -127.5t-19 -115h-199zM448 1836zM453 1274z" />
<glyph unicode="&#x2019;" horiz-adv-x="638" d="M166 992q14 60 28.5 126t28 132t24.5 128t19 115h199l14 -22q-14 -55 -33.5 -115.5t-43 -123t-49 -123.5t-50.5 -117h-137zM448 1836zM453 1274z" />
<glyph unicode="&#x201a;" horiz-adv-x="512" d="M63 -264q67 259 103 502h192l15 -23q-48 -186 -176 -479h-134z" />
<glyph unicode="&#x201c;" horiz-adv-x="1023" d="M169 1014q14 54 33.5 115t42.5 123t49 123.5t51 117.5h137q-15 -61 -29.5 -127t-27.5 -131.5t-24 -127.5t-19 -115h-199zM448 1836zM453 1274zM554 1014q14 54 33.5 115t42.5 123t49 123.5t51 117.5h137q-15 -61 -29.5 -127t-27.5 -131.5t-24 -127.5t-19 -115h-199z" />
<glyph unicode="&#x201d;" horiz-adv-x="1023" d="M166 992q14 60 28.5 126t28 132t24.5 128t19 115h199l14 -22q-14 -55 -33.5 -115.5t-43 -123t-49 -123.5t-50.5 -117h-137zM448 1836zM453 1274zM551 992q14 60 28.5 126t28 132t24.5 128t19 115h199l14 -22q-14 -55 -33.5 -115.5t-43 -123t-49 -123.5t-50.5 -117h-137z " />
<glyph unicode="&#x201e;" horiz-adv-x="852" d="M27 -264q65 250 102 502h193l14 -23q-48 -186 -176 -479h-133zM403 -264q27 104 58 251t47 251h192l15 -23q-48 -186 -176 -479h-136z" />
<glyph unicode="&#x2022;" horiz-adv-x="770" d="M158 748q0 122 58 187.5t169 65.5q110 0 168.5 -65.5t58.5 -187.5t-59.5 -188t-167.5 -66q-110 0 -168.5 66.5t-58.5 187.5z" />
<glyph unicode="&#x2026;" horiz-adv-x="1647" d="M147 111q0 38 10 64.5t27 43t40 24t50 7.5q26 0 49.5 -7.5t40.5 -24t27 -43t10 -64.5q0 -37 -10 -63.5t-27 -43.5t-40.5 -25t-49.5 -8q-27 0 -50 8t-40 25t-27 43.5t-10 63.5zM696 111q0 38 10 64.5t27 43t40 24t50 7.5q26 0 49.5 -7.5t40.5 -24t27 -43t10 -64.5 q0 -37 -10 -63.5t-27 -43.5t-40.5 -25t-49.5 -8q-27 0 -50 8t-40 25t-27 43.5t-10 63.5zM1245 111q0 38 9.5 64.5t27 43t40.5 24t50 7.5q26 0 49.5 -7.5t40.5 -24t27 -43t10 -64.5q0 -37 -10 -63.5t-27 -43.5t-40.5 -25t-49.5 -8q-54 0 -90.5 33t-36.5 107z" />
<glyph unicode="&#x202f;" horiz-adv-x="381" />
<glyph unicode="&#x2039;" horiz-adv-x="635" d="M82 526v27l344 412l129 -74l-287 -350l287 -351l-129 -75z" />
<glyph unicode="&#x203a;" horiz-adv-x="635" d="M80 190l287 351l-287 350l127 74l346 -412v-27l-346 -411z" />
<glyph unicode="&#x205f;" horiz-adv-x="476" />
<glyph unicode="&#x20ac;" horiz-adv-x="1171" d="M47 504v133h148l-2 42v42l2 78h-148v133h162q40 264 188 406.5t381 142.5q205 0 367 -95l-76 -147q-162 84 -291 84q-312 0 -387 -391h500v-133h-514l-2 -56v-62l2 -44h452v-133h-436q35 -174 134.5 -269.5t267.5 -95.5q152 0 305 66v-160q-146 -65 -316 -65 q-236 0 -381.5 133.5t-191.5 390.5h-164z" />
<glyph unicode="&#x2122;" horiz-adv-x="1583" d="M35 1352v110h545v-110h-209v-611h-129v611h-207zM645 741v721h193l192 -555l199 555h186v-721h-131v418l6 137h-8l-207 -555h-108l-197 555h-8l6 -127v-428h-123z" />
<glyph unicode="&#x25fc;" horiz-adv-x="1100" d="M0 0v1100h1100v-1100h-1100z" />
<glyph unicode="&#xfb01;" horiz-adv-x="1233" d="M31 958v84l192 62v63q0 200 87.5 300t269.5 100q105 0 213 -37l-48 -141q-93 30 -163 30q-91 0 -135 -60t-44 -190v-71h277v-140h-277v-958h-180v958h-192zM865 1395q0 60 30.5 87t75.5 27q42 0 73.5 -27t31.5 -87q0 -59 -31.5 -87t-73.5 -28q-45 0 -75.5 28t-30.5 87z M879 0v1098h180v-1098h-180z" />
<glyph unicode="&#xfb02;" horiz-adv-x="1233" d="M31 958v84l192 62v63q0 200 87.5 300t269.5 100q105 0 213 -37l-48 -141q-93 30 -163 30q-91 0 -135 -60t-44 -190v-71h277v-140h-277v-958h-180v958h-192zM879 0v1556h180v-1556h-180z" />
<glyph unicode="&#xfb03;" horiz-adv-x="1937" d="M31 958v84l192 62v63q0 200 87.5 300t269.5 100q105 0 213 -37l-48 -141q-93 30 -163 30q-91 0 -135 -60t-44 -190v-71h277v-140h-277v-958h-180v958h-192zM736 958v84l192 62v63q0 200 87.5 300t269.5 100q105 0 213 -37l-48 -141q-93 30 -163 30q-91 0 -135 -60 t-44 -190v-71h277v-140h-277v-958h-180v958h-192zM1569 1395q0 60 30.5 87t75.5 27q42 0 73.5 -27t31.5 -87q0 -59 -31.5 -87t-73.5 -28q-45 0 -75.5 28t-30.5 87zM1583 0v1098h180v-1098h-180z" />
<glyph unicode="&#xfb04;" horiz-adv-x="1937" d="M31 958v84l192 62v63q0 200 87.5 300t269.5 100q105 0 213 -37l-48 -141q-93 30 -163 30q-91 0 -135 -60t-44 -190v-71h277v-140h-277v-958h-180v958h-192zM736 958v84l192 62v63q0 200 87.5 300t269.5 100q105 0 213 -37l-48 -141q-93 30 -163 30q-91 0 -135 -60 t-44 -190v-71h277v-140h-277v-958h-180v958h-192zM1583 0v1556h180v-1556h-180z" />
</font>
</defs>
</svg>
